<?xml version="1.0" encoding="UTF-8"?>
<svg xmlns="http://www.w3.org/2000/svg" xmlns:xlink="http://www.w3.org/1999/xlink" version="1.2" >
<font id="BauhausStd-Medium" horiz-adv-x="497">
<font-face  font-family="Bauhaus Std" units-per-em="1000" ascent="700" descent="-300" font-style="normal" font-weight="500" font-stretch="normal" cap-height="700" x-height="480" underline-position="-75" underline-thickness="50" />
<missing-glyph horiz-adv-x="500" d="M0 0 L500 0 L500 700 L0 700 L0 0 Z M250 395 L80 650 L420 650 L250 395 Z M280 350 L450 605 L450 95 L280 350 Z M80 50 L250 305 L420 50 L80 50 Z M50 605 L220 350 L50 95 L50 605 Z " />
<glyph glyph-name="NULL" horiz-adv-x="0" >
</glyph>
<glyph glyph-name="CR" unicode="&#xd;" horiz-adv-x="250" >
</glyph>
<glyph glyph-name="space" unicode="&#x20;" horiz-adv-x="278" />
<glyph glyph-name="exclam" unicode="&#x21;" horiz-adv-x="222" d="M150 160 L150 700 L66 700 L66 160 L150 160 L150 160 Z M46 50 C46 17 72 -12 108 -12 C145 -12 170 17 170 50 C170 82 145 112 108 112 C72 112 46 82 46 50 L46 50 Z " />
<glyph glyph-name="quotedbl" unicode="&#x22;" horiz-adv-x="333" d="M197 430 L279 430 L279 700 L197 700 L197 430 L197 430 Z M55 430 L137 430 L137 700 L55 700 L55 430 L55 430 Z " />
<glyph glyph-name="numbersign" unicode="&#x23;" horiz-adv-x="556" d="M495 278 L404 278 L424 422 L521 422 L524 486 L433 486 L463 700 L390 700 L361 486 L242 486 L272 700 L199 700 L170 486 L64 486 L61 422 L161 422 L141 278 L35 278 L32 214 L132 214 L102 0 L174 0 L204 214 L323 214 L293 0 L365 0 L395 214 L492 214 L495 278 L495 278 Z M352 422 L332 278 L213 278 L233 422 L352 422 L352 422 Z " />
<glyph glyph-name="dollar" unicode="&#x24;" horiz-adv-x="556" d="M326 782 L250 782 L250 700 C160 700 86 652 86 558 C86 454 176 420 250 372 L250 180 L90 180 L90 96 L250 96 L250 -12 L326 -12 L326 96 C416 96 488 138 488 240 C488 355 404 383 326 439 L326 616 L461 616 L461 700 L326 700 L326 782 L326 782 Z M250 470 C220 487 174 512 174 553 C174 598 202 616 250 616 L250 470 L250 470 Z M326 337 C359 313 400 293 400 244 C400 198 364 180 326 180 L326 337 L326 337 Z " />
<glyph glyph-name="percent" unicode="&#x25;" horiz-adv-x="889" d="M124 548 C124 598 164 634 210 634 C256 634 296 598 296 548 C296 498 256 462 210 462 C164 462 124 498 124 548 L124 548 Z M695 712 L633 712 L168 -12 L230 -12 L695 712 L695 712 Z M568 152 C568 202 608 238 654 238 C700 238 740 202 740 152 C740 102 700 66 654 66 C608 66 568 102 568 152 L568 152 Z M46 548 C46 450 126 384 210 384 C294 384 374 450 374 548 C374 646 294 712 210 712 C126 712 46 646 46 548 L46 548 Z M490 152 C490 54 570 -12 654 -12 C738 -12 818 54 818 152 C818 250 738 316 654 316 C570 316 490 250 490 152 L490 152 Z " />
<glyph glyph-name="ampersand" unicode="&#x26;" horiz-adv-x="667" d="M495 700 L205 700 C149 700 104 666 104 604 C104 567 130 532 152 506 C74 453 33 365 33 273 C33 106 164 -12 328 -12 C389 -12 456 2 507 39 L543 0 L657 0 L573 106 C608 156 627 213 627 275 C627 366 593 426 531 490 L467 424 C515 366 533 322 533 274 C533 236 527 208 511 186 L220 558 C207 575 198 589 198 599 C198 607 202 612 218 612 L495 612 L495 700 L495 700 Z M455 116 C416 85 376 76 327 76 C215 76 131 164 131 275 C131 338 159 397 209 435 L455 116 L455 116 Z " />
<glyph glyph-name="quotesingle" unicode="&#x27;" horiz-adv-x="222" d="M70 430 L152 430 L152 700 L70 700 L70 430 L70 430 Z " />
<glyph glyph-name="parenleft" unicode="&#x28;" horiz-adv-x="389" d="M328 -128 C202 -31 150 113 150 270 C150 427 205 560 328 658 L288 712 C146 613 72 434 72 265 C72 91 149 -86 292 -188 L328 -128 L328 -128 Z " />
<glyph glyph-name="parenright" unicode="&#x29;" horiz-adv-x="389" d="M61 652 C187 555 239 411 239 254 C239 97 184 -36 61 -134 L101 -188 C243 -89 317 90 317 259 C317 433 240 610 97 712 L61 652 L61 652 Z " />
<glyph glyph-name="asterisk" unicode="&#x2a;" horiz-adv-x="500" d="M100 374 L224 454 L212 314 L288 314 L276 454 L400 374 L438 436 L306 507 L438 576 L400 638 L276 554 L288 700 L212 700 L224 554 L100 638 L62 576 L194 507 L62 436 L100 374 L100 374 Z " />
<glyph glyph-name="plus" unicode="&#x2b;" horiz-adv-x="600" d="M261 279 L60 279 L60 201 L261 201 L261 0 L339 0 L339 201 L540 201 L540 279 L339 279 L339 480 L261 480 L261 279 L261 279 Z " />
<glyph glyph-name="comma" unicode="&#x2c;" horiz-adv-x="278" d="M62 -100 L140 -100 L198 96 L104 96 L62 -100 L62 -100 Z " />
<glyph glyph-name="hyphen" unicode="&#x2d;" horiz-adv-x="278" d="M251 200 L251 280 L27 280 L27 200 L251 200 L251 200 Z " />
<glyph glyph-name="period" unicode="&#x2e;" horiz-adv-x="278" d="M80 53 C80 20 107 -6 139 -6 C171 -6 198 20 198 53 C198 86 171 112 139 112 C107 112 80 86 80 53 L80 53 Z " />
<glyph glyph-name="slash" unicode="&#x2f;" horiz-adv-x="278" d="M206 712 L-6 -12 L72 -12 L284 712 L206 712 L206 712 Z " />
<glyph glyph-name="zero" unicode="0" horiz-adv-x="556" d="M33 246 C33 86 147 -12 278 -12 C409 -12 523 86 523 246 L523 454 C523 614 409 712 278 712 C147 712 33 614 33 454 L33 246 L33 246 Z M135 454 C135 558 186 618 278 618 C370 618 421 558 421 454 L421 246 C421 142 370 82 278 82 C186 82 135 142 135 246 L135 454 L135 454 Z " />
<glyph glyph-name="one" unicode="1" horiz-adv-x="556" d="M137 700 L111 612 L237 612 L237 0 L333 0 L333 700 L137 700 L137 700 Z " />
<glyph glyph-name="two" unicode="2" horiz-adv-x="556" d="M510 88 L158 88 L158 90 L353 242 C446 315 513 376 513 491 C513 615 413 712 289 712 C159 712 41 627 41 489 C41 388 92 314 187 279 L269 344 C201 351 137 404 137 476 C137 564 189 624 279 624 C357 624 417 569 417 490 C417 431 379 382 341 352 L95 159 C51 124 32 111 32 74 C32 28 65 0 126 0 L510 0 L510 88 L510 88 Z " />
<glyph glyph-name="three" unicode="3" horiz-adv-x="556" d="M45 0 L302 0 C420 0 511 89 511 223 C511 349 415 426 285 428 L379 508 C425 547 463 574 463 624 C463 675 430 700 364 700 L61 700 L61 612 L361 612 L142 410 L142 340 L251 340 C356 340 415 289 415 220 C415 147 368 88 276 88 L45 88 L45 0 L45 0 Z " />
<glyph glyph-name="four" unicode="4" horiz-adv-x="556" d="M265 700 L40 293 C23 262 10 243 10 220 C10 184 35 162 77 162 L327 162 L327 0 L423 0 L423 162 L528 162 L528 250 L423 250 L423 698 C423 709 423 712 422 712 C421 712 419 709 415 702 L327 552 L327 250 L117 250 L369 700 L265 700 L265 700 Z " />
<glyph glyph-name="five" unicode="5" horiz-adv-x="556" d="M86 700 L86 342 L261 342 C372 342 416 295 416 212 C416 140 372 88 285 88 L56 88 L56 0 L311 0 C438 0 518 105 518 210 C518 356 418 430 267 430 L182 430 L182 612 L452 612 L452 700 L86 700 L86 700 Z " />
<glyph glyph-name="six" unicode="6" horiz-adv-x="556" d="M240 410 C352 412 436 354 436 236 C436 148 362 76 276 76 C192 76 120 146 120 229 C120 296 144 337 184 394 L402 700 L286 700 L115 458 C65 387 24 330 24 237 C24 96 136 -12 274 -12 C422 -12 532 108 532 238 C532 379 450 486 295 490 L240 410 L240 410 Z " />
<glyph glyph-name="seven" unicode="7" horiz-adv-x="556" d="M44 612 L400 612 L126 0 L236 0 L443 468 C475 539 503 588 503 628 C503 678 469 700 395 700 L44 700 L44 612 L44 612 Z " />
<glyph glyph-name="eight" unicode="8" horiz-adv-x="556" d="M29 210 C29 94 117 -12 278 -12 C439 -12 527 94 527 210 C527 300 483 360 415 396 C456 437 477 482 477 538 C477 646 391 712 278 712 C153 712 75 624 75 538 C75 472 99 435 141 396 C75 354 29 291 29 210 L29 210 Z M131 211 C131 292 191 346 278 346 C365 346 425 292 425 211 C425 130 365 76 278 76 C191 76 131 130 131 211 L131 211 Z M177 529 C177 582 216 624 276 624 C336 624 375 582 375 529 C375 476 336 434 276 434 C216 434 177 476 177 529 L177 529 Z " />
<glyph glyph-name="nine" unicode="9" horiz-adv-x="556" d="M316 290 C204 288 120 346 120 464 C120 552 194 624 280 624 C364 624 436 554 436 471 C436 404 412 363 372 306 L154 0 L270 0 L441 242 C491 313 532 370 532 463 C532 604 420 712 282 712 C134 712 24 592 24 462 C24 321 106 214 261 210 L316 290 L316 290 Z " />
<glyph glyph-name="colon" unicode="&#x3a;" horiz-adv-x="278" d="M80 53 C80 20 107 -6 139 -6 C171 -6 198 20 198 53 C198 86 171 112 139 112 C107 112 80 86 80 53 L80 53 Z M80 341 C80 308 107 282 139 282 C171 282 198 308 198 341 C198 374 171 400 139 400 C107 400 80 374 80 341 L80 341 Z " />
<glyph glyph-name="semicolon" unicode="&#x3b;" horiz-adv-x="278" d="M62 -100 L140 -100 L198 96 L104 96 L62 -100 L62 -100 Z M80 341 C80 308 107 282 139 282 C171 282 198 308 198 341 C198 374 171 400 139 400 C107 400 80 374 80 341 L80 341 Z " />
<glyph glyph-name="less" unicode="&#x3c;" horiz-adv-x="600" d="M540 70 L157 240 L540 410 L540 488 L60 274 L60 206 L540 -8 L540 70 L540 70 Z " />
<glyph glyph-name="equal" unicode="&#x3d;" horiz-adv-x="600" d="M540 378 L60 378 L60 300 L540 300 L540 378 L540 378 Z M540 180 L60 180 L60 102 L540 102 L540 180 L540 180 Z " />
<glyph glyph-name="greater" unicode="&#x3e;" horiz-adv-x="600" d="M60 70 L60 -8 L540 206 L540 274 L60 488 L60 410 L442 240 L60 70 L60 70 Z " />
<glyph glyph-name="question" unicode="&#x3f;" horiz-adv-x="444" d="M120 490 C121 562 154 624 231 624 C301 624 344 570 344 502 C344 430 300 380 200 380 L174 380 L174 160 L262 160 L262 295 C364 313 438 392 438 506 C438 620 346 712 238 712 C111 712 26 616 26 490 L120 490 L120 490 Z M156 50 C156 17 182 -12 218 -12 C255 -12 280 17 280 50 C280 82 255 112 218 112 C182 112 156 82 156 50 L156 50 Z " />
<glyph glyph-name="at" unicode="&#x40;" horiz-adv-x="800" d="M280 302 C280 377 337 476 418 476 C461 476 497 436 497 389 C497 316 439 212 360 212 C313 212 280 249 280 302 L280 302 Z M526 480 C501 531 461 552 414 552 C283 552 196 420 196 293 C196 207 258 136 341 136 C384 136 426 163 453 193 L455 193 C457 154 483 136 514 136 C595 136 749 232 749 414 C749 591 593 712 415 712 C216 712 51 553 51 351 C51 146 214 -12 420 -12 C543 -12 655 49 719 152 L649 152 C595 90 511 52 424 52 C255 52 127 176 127 347 C127 515 245 648 415 648 C561 648 681 557 681 402 C681 299 614 204 552 204 C540 204 533 211 533 229 C533 242 538 259 542 274 L614 536 L544 536 L526 480 L526 480 Z " />
<glyph glyph-name="A" unicode="A" horiz-adv-x="556" d="M133 0 L133 450 C133 560 192 624 278 624 C364 624 423 560 423 450 L423 406 L171 406 L171 318 L423 318 L423 0 L517 0 L517 444 C517 610 414 712 278 712 C142 712 39 610 39 444 L39 0 L133 0 L133 0 Z " />
<glyph glyph-name="B" unicode="B" horiz-adv-x="556" d="M153 0 L153 488 C153 570 202 624 289 624 C356 624 414 586 414 512 C414 455 372 406 287 406 L189 406 L189 318 L306 318 C395 318 446 279 446 203 C446 130 406 88 306 88 L189 88 L189 0 L330 0 C451 0 540 77 540 198 C540 282 509 334 438 375 C486 405 508 454 508 516 C508 639 415 712 281 712 C152 712 59 609 59 496 L59 0 L153 0 L153 0 Z " />
<glyph glyph-name="C" unicode="C" horiz-adv-x="500" d="M475 700 L401 700 C174 700 35 520 35 350 C35 150 180 0 375 0 L475 0 L475 88 L375 88 C272 88 133 168 133 350 C133 500 251 612 411 612 L475 612 L475 700 L475 700 Z " />
<glyph glyph-name="D" unicode="D" horiz-adv-x="611" d="M153 0 L153 612 L210 612 C368 612 481 504 481 350 C481 202 375 88 244 88 L193 88 L193 0 L236 0 C434 0 579 162 579 350 C579 538 434 700 236 700 L59 700 L59 0 L153 0 L153 0 Z " />
<glyph glyph-name="E" unicode="E" horiz-adv-x="500" d="M459 406 L121 406 C125 476 213 612 396 612 L459 612 L459 700 L385 700 C175 700 23 548 23 350 C23 152 175 0 385 0 L459 0 L459 88 L368 88 C246 88 129 186 121 318 L459 318 L459 406 L459 406 Z " />
<glyph glyph-name="F" unicode="F" horiz-adv-x="389" d="M122 0 L122 304 L361 304 L361 392 L122 392 L122 475 C122 572 172 612 259 612 L361 612 L361 700 L245 700 C109 700 28 614 28 465 L28 0 L122 0 L122 0 Z " />
<glyph glyph-name="G" unicode="G" horiz-adv-x="778" d="M678 586 C585 679 506 712 389 712 C191 712 23 552 23 350 C23 148 191 -12 389 -12 C556 -12 744 107 744 334 L744 394 L402 394 L402 306 L646 306 C639 163 522 76 389 76 C234 76 121 201 121 350 C121 499 234 624 389 624 C487 624 538 582 615 518 L678 586 L678 586 Z " />
<glyph glyph-name="H" unicode="H" horiz-adv-x="611" d="M153 0 L153 318 L457 318 L457 0 L551 0 L551 700 L457 700 L457 406 L153 406 L153 700 L59 700 L59 0 L153 0 L153 0 Z " />
<glyph glyph-name="I" unicode="I" horiz-adv-x="222" d="M158 0 L158 700 L64 700 L64 0 L158 0 L158 0 Z " />
<glyph glyph-name="J" unicode="J" horiz-adv-x="333" d="M195 700 L195 220 C195 132 146 88 45 88 L-2 88 L-2 0 L47 0 C216 0 289 87 289 226 L289 700 L195 700 L195 700 Z " />
<glyph glyph-name="K" unicode="K" horiz-adv-x="556" d="M158 0 L158 318 L289 318 C384 318 418 264 418 194 L418 0 L512 0 L512 194 C512 310 458 365 372 388 C424 422 449 489 478 552 L546 700 L441 700 L352 502 C324 439 285 406 230 406 L158 406 L158 700 L64 700 L64 0 L158 0 L158 0 Z " />
<glyph glyph-name="L" unicode="L" horiz-adv-x="389" d="M64 700 L64 226 C64 94 151 0 286 0 L391 0 L391 88 L300 88 C202 88 158 141 158 249 L158 700 L64 700 L64 700 Z " />
<glyph glyph-name="M" unicode="M" horiz-adv-x="778" d="M98 0 L165 568 L167 568 L317 80 C338 11 354 0 388 0 L390 0 C424 0 440 11 461 80 L611 568 L613 568 L680 0 L778 0 L697 638 C691 686 656 712 619 712 C578 712 552 697 532 630 L390 159 L388 159 L246 630 C226 697 200 712 159 712 C122 712 87 686 81 638 L0 0 L98 0 L98 0 Z " />
<glyph glyph-name="N" unicode="N" horiz-adv-x="611" d="M144 0 L144 574 L146 574 L395 62 C421 8 443 -6 488 -6 C537 -6 560 23 560 61 L560 700 L466 700 L466 138 L464 138 L239 603 C205 674 186 706 132 706 C86 706 50 682 50 620 L50 0 L144 0 L144 0 Z " />
<glyph glyph-name="O" unicode="O" horiz-adv-x="778" d="M23 350 C23 148 191 -12 389 -12 C587 -12 755 148 755 350 C755 552 587 712 389 712 C191 712 23 552 23 350 L23 350 Z M121 350 C121 499 234 624 389 624 C544 624 657 499 657 350 C657 201 544 76 389 76 C234 76 121 201 121 350 L121 350 Z " />
<glyph glyph-name="P" unicode="P" horiz-adv-x="500" d="M134 0 L134 480 C134 569 190 624 265 624 C342 624 401 572 401 487 C401 403 345 352 271 352 L171 352 L171 264 L298 264 C409 264 495 364 495 487 C495 606 406 712 264 712 C144 712 40 619 40 468 L40 0 L134 0 L134 0 Z " />
<glyph glyph-name="Q" unicode="Q" horiz-adv-x="778" d="M456 -4 C612 18 755 170 755 350 C754 552 587 712 389 712 C191 712 23 552 23 350 C23 166 158 26 316 -4 L316 86 C216 106 121 216 121 350 C121 499 234 624 389 624 C544 624 657 499 657 350 C657 224 581 114 456 84 L456 228 L362 228 L362 -144 L456 -144 L456 -4 L456 -4 Z " />
<glyph glyph-name="R" unicode="R" horiz-adv-x="556" d="M144 0 L144 489 C144 570 201 624 282 624 C346 624 404 579 404 510 C404 432 342 394 259 394 L185 394 L185 306 L289 306 C376 306 416 261 416 192 L416 0 L510 0 L510 195 C510 297 477 333 417 357 C475 392 498 446 498 513 C498 621 411 712 282 712 C144 712 50 619 50 462 L50 0 L144 0 L144 0 Z " />
<glyph glyph-name="S" unicode="S" horiz-adv-x="500" d="M24 0 L281 0 C405 0 475 75 475 187 C475 400 123 400 123 529 C123 583 156 612 208 612 L444 612 L444 700 L221 700 C111 700 29 638 29 524 C29 316 381 322 381 179 C381 118 347 88 264 88 L24 88 L24 0 L24 0 Z " />
<glyph glyph-name="T" unicode="T" horiz-adv-x="444" d="M2 612 L175 612 L175 0 L269 0 L269 612 L442 612 L442 700 L2 700 L2 612 L2 612 Z " />
<glyph glyph-name="U" unicode="U" horiz-adv-x="556" d="M46 700 L46 230 C46 94 146 -12 277 -12 C408 -12 509 94 509 230 L509 700 L415 700 L415 240 C415 145 367 76 277 76 C187 76 140 145 140 240 L140 700 L46 700 L46 700 Z " />
<glyph glyph-name="V" unicode="V" horiz-adv-x="556" d="M-14 700 L199 70 C221 6 246 -12 283 -12 C320 -12 346 6 367 70 L570 700 L473 700 L283 122 L281 122 L84 700 L-14 700 L-14 700 Z " />
<glyph glyph-name="W" unicode="W" horiz-adv-x="889" d="M49 210 C49 69 151 -12 256 -12 C336 -12 397 9 444 79 C491 9 552 -12 632 -12 C737 -12 839 69 839 210 L839 700 L745 700 L745 210 C745 131 703 76 618 76 C533 76 491 131 491 210 L491 700 L397 700 L397 210 C397 131 355 76 270 76 C185 76 143 131 143 210 L143 700 L49 700 L49 210 L49 210 Z " />
<glyph glyph-name="X" unicode="X" horiz-adv-x="556" d="M552 700 C430 696 307 626 279 500 L277 500 C249 626 126 696 4 700 L4 612 C141 614 227 486 227 350 C227 214 141 86 4 88 L4 0 C126 4 249 74 277 200 L279 200 C307 74 430 4 552 0 L552 88 C415 86 329 214 329 350 C329 486 415 614 552 612 L552 700 L552 700 Z " />
<glyph glyph-name="Y" unicode="Y" horiz-adv-x="500" d="M295 0 L295 274 C422 303 476 396 476 488 L476 700 L382 700 L382 487 C382 408 329 362 250 362 C170 362 117 408 117 487 L117 700 L23 700 L23 488 C23 396 77 303 201 274 L201 0 L295 0 L295 0 Z " />
<glyph glyph-name="Z" unicode="Z" horiz-adv-x="500" d="M370 612 L55 174 C32 142 12 112 12 68 C12 36 38 0 88 0 L479 0 L479 88 L114 88 L427 532 C453 568 468 600 468 640 C468 670 446 700 386 700 L49 700 L49 612 L370 612 L370 612 Z " />
<glyph glyph-name="bracketleft" unicode="&#x5b;" horiz-adv-x="389" d="M286 -176 L286 -130 L200 -130 L200 654 L286 654 L286 700 L112 700 L112 -176 L286 -176 L286 -176 Z " />
<glyph glyph-name="backslash" unicode="&#x5c;" horiz-adv-x="278" d="M-62 712 L262 -12 L340 -12 L16 712 L-62 712 L-62 712 Z " />
<glyph glyph-name="bracketright" unicode="&#x5d;" horiz-adv-x="389" d="M103 700 L103 654 L189 654 L189 -130 L103 -130 L103 -176 L277 -176 L277 700 L103 700 L103 700 Z " />
<glyph glyph-name="asciicircum" unicode="&#x5e;" horiz-adv-x="600" d="M140 286 L300 614 L460 286 L544 286 L338 700 L262 700 L56 286 L140 286 L140 286 Z " />
<glyph glyph-name="underscore" unicode="&#x5f;" horiz-adv-x="500" d="M500 -125 L500 -75 L0 -75 L0 -125 L500 -125 L500 -125 Z " />
<glyph glyph-name="grave" unicode="&#x60;" horiz-adv-x="278" d="M7 680 L137 538 L205 538 L115 680 L7 680 L7 680 Z " />
<glyph glyph-name="a" unicode="a" horiz-adv-x="556" d="M516 0 L516 262 C516 400 422 490 274 490 C120 490 26 382 26 245 C26 104 124 -10 262 -10 C323 -10 357 10 392 36 L392 140 C362 102 321 74 271 74 C179 74 114 149 114 238 C114 329 175 406 272 406 C352 406 428 360 428 270 L428 0 L516 0 L516 0 Z " />
<glyph glyph-name="b" unicode="b" horiz-adv-x="556" d="M40 700 L40 254 C40 96 141 -10 282 -10 C438 -10 530 110 530 252 C530 386 422 490 299 490 C251 490 205 480 163 456 L163 364 C195 386 244 406 284 406 C379 406 442 340 442 241 C442 143 376 74 282 74 C198 74 128 138 128 270 L128 700 L40 700 L40 700 Z " />
<glyph glyph-name="c" unicode="c" horiz-adv-x="389" d="M368 480 L284 480 C172 480 43 394 43 240 C43 86 172 0 284 0 L368 0 L368 84 L300 84 C217 84 135 138 135 240 C135 342 217 396 300 396 L368 396 L368 480 L368 480 Z " />
<glyph glyph-name="d" unicode="d" horiz-adv-x="556" d="M428 700 L428 270 C428 138 358 74 274 74 C180 74 114 143 114 241 C114 340 177 406 272 406 C312 406 361 386 393 364 L393 456 C351 480 305 490 257 490 C134 490 26 386 26 252 C26 110 118 -10 274 -10 C415 -10 516 96 516 254 L516 700 L428 700 L428 700 Z " />
<glyph glyph-name="e" unicode="e" horiz-adv-x="556" d="M511 338 C466 431 391 490 279 490 C146 490 30 388 30 240 C30 92 146 -10 279 -10 C417 -10 519 86 529 213 L440 224 C422 136 383 74 279 74 C188 74 122 142 122 240 C122 338 188 406 279 406 C333 406 358 390 388 360 L151 228 L187 158 L511 338 L511 338 Z " />
<glyph glyph-name="f" unicode="f" horiz-adv-x="278" d="M140 0 L140 396 L284 396 L284 480 L140 480 L140 527 C140 588 176 616 234 616 L296 616 L296 700 L222 700 C123 700 52 634 52 525 L52 0 L140 0 L140 0 Z " />
<glyph glyph-name="g" unicode="g" horiz-adv-x="556" d="M393 113 C359 93 321 74 281 74 C190 74 120 135 120 229 C120 323 171 406 276 406 C358 406 428 340 428 232 L428 8 C428 -109 340 -144 261 -144 C216 -144 172 -132 128 -120 L107 -200 C158 -217 211 -228 265 -228 C406 -228 516 -142 516 38 L516 252 C516 372 426 490 280 490 C130 490 32 378 32 234 C32 94 140 -10 280 -10 C313 -10 360 4 393 22 L393 113 L393 113 Z " />
<glyph glyph-name="h" unicode="h" horiz-adv-x="500" d="M133 0 L133 280 C133 354 186 406 250 406 C313 406 367 378 367 280 L367 0 L455 0 L455 280 C455 442 367 490 256 490 C205 490 160 468 133 438 L133 700 L45 700 L45 0 L133 0 L133 0 Z " />
<glyph glyph-name="i" unicode="i" horiz-adv-x="278" d="M183 0 L183 480 L95 480 L95 0 L183 0 L183 0 Z M86 587 C86 560 105 534 139 534 C173 534 192 560 192 587 C192 614 173 640 139 640 C105 640 86 614 86 587 L86 587 Z " />
<glyph glyph-name="j" unicode="j" horiz-adv-x="222" d="M68 480 L68 -22 C68 -110 44 -132 -42 -132 L-65 -132 L-65 -216 L-39 -216 C74 -216 156 -167 156 -41 L156 480 L68 480 L68 480 Z M59 587 C59 560 78 534 112 534 C146 534 165 560 165 587 C165 614 146 640 112 640 C78 640 59 614 59 587 L59 587 Z " />
<glyph glyph-name="k" unicode="k" horiz-adv-x="444" d="M140 0 L140 218 L240 218 C286 218 318 191 318 131 L318 0 L406 0 L406 141 C406 226 367 268 296 282 L296 284 C323 291 352 339 371 372 L434 480 L334 480 L251 338 C238 316 214 302 177 302 L140 302 L140 700 L52 700 L52 0 L140 0 L140 0 Z " />
<glyph glyph-name="l" unicode="l" horiz-adv-x="222" d="M155 0 L155 700 L67 700 L67 0 L155 0 L155 0 Z " />
<glyph glyph-name="m" unicode="m" horiz-adv-x="722" d="M137 0 L137 306 C137 367 171 406 223 406 C280 406 317 374 317 292 L317 0 L405 0 L405 292 C405 374 442 406 499 406 C551 406 585 367 585 306 L585 0 L673 0 L673 326 C673 416 599 490 501 490 C447 490 393 468 361 422 C329 468 275 490 221 490 C123 490 49 416 49 326 L49 0 L137 0 L137 0 Z " />
<glyph glyph-name="n" unicode="n" horiz-adv-x="500" d="M133 0 L133 280 C133 354 187 406 250 406 C313 406 367 354 367 280 L367 0 L455 0 L455 280 C455 406 367 490 250 490 C133 490 45 406 45 280 L45 0 L133 0 L133 0 Z " />
<glyph glyph-name="o" unicode="o" horiz-adv-x="556" d="M29 240 C29 92 145 -10 278 -10 C411 -10 527 92 527 240 C527 388 411 490 278 490 C145 490 29 388 29 240 L29 240 Z M121 240 C121 338 187 406 278 406 C369 406 435 338 435 240 C435 142 369 74 278 74 C187 74 121 142 121 240 L121 240 Z " />
<glyph glyph-name="p" unicode="p" horiz-adv-x="556" d="M128 -216 L128 210 C128 342 198 406 282 406 C376 406 442 337 442 239 C442 140 379 74 284 74 C244 74 195 94 163 116 L163 24 C205 0 251 -10 299 -10 C422 -10 530 94 530 228 C530 370 438 490 282 490 C141 490 40 384 40 226 L40 -216 L128 -216 L128 -216 Z " />
<glyph glyph-name="q" unicode="q" horiz-adv-x="556" d="M516 -216 L516 226 C516 384 415 490 274 490 C118 490 26 370 26 228 C26 94 134 -10 257 -10 C305 -10 351 0 393 24 L393 116 C361 94 312 74 272 74 C177 74 114 140 114 239 C114 337 180 406 274 406 C358 406 428 342 428 210 L428 -216 L516 -216 L516 -216 Z " />
<glyph glyph-name="r" unicode="r" horiz-adv-x="278" d="M44 0 L132 0 L132 224 C132 354 182 406 267 406 L280 406 L280 490 L260 490 C201 490 160 472 130 425 L128 425 L128 480 L44 480 L44 0 L44 0 Z " />
<glyph glyph-name="s" unicode="s" horiz-adv-x="444" d="M28 0 L274 0 C359 0 423 43 423 134 C423 306 119 271 120 354 C121 384 134 396 177 396 L399 396 L399 480 L192 480 C87 480 28 435 28 350 C28 184 331 218 331 130 C331 100 315 84 274 84 L28 84 L28 0 L28 0 Z " />
<glyph glyph-name="t" unicode="t" horiz-adv-x="333" d="M319 480 L147 480 L147 600 L59 600 L59 155 C59 60 111 0 201 0 L319 0 L319 84 L213 84 C168 84 147 99 147 144 L147 396 L319 396 L319 480 L319 480 Z " />
<glyph glyph-name="u" unicode="u" horiz-adv-x="500" d="M367 480 L367 200 C367 126 313 74 250 74 C187 74 133 126 133 200 L133 480 L45 480 L45 200 C45 74 133 -10 250 -10 C367 -10 455 74 455 200 L455 480 L367 480 L367 480 Z " />
<glyph glyph-name="v" unicode="v" horiz-adv-x="444" d="M362 480 L223 108 L83 480 L-13 480 L154 39 C170 -4 191 -10 222 -10 C253 -10 274 -4 290 39 L458 480 L362 480 L362 480 Z " />
<glyph glyph-name="w" unicode="w" horiz-adv-x="722" d="M585 480 L585 174 C585 113 551 74 499 74 C442 74 405 106 405 188 L405 480 L317 480 L317 188 C317 106 280 74 223 74 C171 74 137 113 137 174 L137 480 L49 480 L49 154 C49 64 123 -10 221 -10 C275 -10 329 12 361 58 C393 12 447 -10 501 -10 C599 -10 673 64 673 154 L673 480 L585 480 L585 480 Z " />
<glyph glyph-name="x" unicode="x" horiz-adv-x="389" d="M7 0 C93 0 155 40 194 112 C235 40 301 0 382 0 L382 84 C300 88 239 157 239 240 C239 323 300 392 382 396 L382 480 C304 480 221 436 194 360 C158 437 91 475 7 480 L7 396 C90 392 151 323 151 240 C151 157 90 88 7 84 L7 0 L7 0 Z " />
<glyph glyph-name="y" unicode="y" horiz-adv-x="500" d="M50 480 L50 191 C50 81 104 17 206 -10 L206 -216 L294 -216 L294 -10 C396 17 450 81 450 191 L450 480 L362 480 L362 192 C362 126 324 74 250 74 C176 74 138 126 138 192 L138 480 L50 480 L50 480 Z " />
<glyph glyph-name="z" unicode="z" horiz-adv-x="389" d="M364 84 L116 84 L345 364 C356 377 360 395 360 416 C360 455 328 480 268 480 L35 480 L35 396 L262 396 L66 156 C34 117 18 94 18 63 C18 22 46 0 90 0 L364 0 L364 84 L364 84 Z " />
<glyph glyph-name="braceleft" unicode="&#x7b;" horiz-adv-x="389" d="M33 234 C73 234 112 189 112 122 L112 -54 C112 -125 157 -176 212 -176 L291 -176 L291 -130 L245 -130 C220 -130 200 -112 200 -50 L200 135 C200 230 141 257 121 262 L121 264 C141 268 200 300 200 388 L200 574 C200 636 220 654 245 654 L291 654 L291 700 L212 700 C157 700 112 649 112 578 L112 401 C112 335 73 292 33 292 L33 234 L33 234 Z " />
<glyph glyph-name="bar" unicode="&#x7c;" horiz-adv-x="222" d="M72 0 L150 0 L150 700 L72 700 L72 0 L72 0 Z " />
<glyph glyph-name="braceright" unicode="&#x7d;" horiz-adv-x="389" d="M356 290 C316 290 277 335 277 402 L277 578 C277 649 232 700 177 700 L98 700 L98 654 L144 654 C169 654 189 636 189 574 L189 389 C189 294 248 267 268 262 L268 260 C248 256 189 224 189 136 L189 -50 C189 -112 169 -130 144 -130 L98 -130 L98 -176 L177 -176 C232 -176 277 -125 277 -54 L277 123 C277 189 316 232 356 232 L356 290 L356 290 Z " />
<glyph glyph-name="asciitilde" unicode="&#x7e;" horiz-adv-x="600" d="M495 316 C472 281 447 244 407 244 C382 244 347 261 309 278 C272 295 231 312 194 312 C127 312 91 268 69 226 L105 164 C121 199 145 236 189 236 C235 236 269 219 302 202 C335 185 366 168 406 168 C468 168 501 212 531 254 L495 316 L495 316 Z " />
<glyph glyph-name="uni00A0" unicode="&#xa0;" horiz-adv-x="278" />
<glyph glyph-name="exclamdown" unicode="&#xa1;" horiz-adv-x="222" d="M72 324 L72 -216 L156 -216 L156 324 L72 324 L72 324 Z M176 434 C176 467 150 496 114 496 C77 496 52 467 52 434 C52 402 77 372 114 372 C150 372 176 402 176 434 L176 434 Z " />
<glyph glyph-name="cent" unicode="&#xa2;" horiz-adv-x="556" d="M252 576 C148 572 70 481 70 380 C70 278 147 186 252 184 L252 55 L328 55 L328 184 L393 184 L393 272 L286 272 C209 272 166 309 166 380 C166 451 209 488 286 488 L393 488 L393 576 L328 576 L328 700 L252 700 L252 576 L252 576 Z " />
<glyph glyph-name="sterling" unicode="&#xa3;" horiz-adv-x="556" d="M331 410 L217 410 C216 441 213 471 213 496 C213 578 260 624 331 624 C365 624 394 614 418 603 L449 688 C410 701 368 712 328 712 C201 712 117 618 117 490 L117 410 L53 410 L53 322 L120 322 C121 273 124 229 124 184 C124 115 98 88 20 88 L0 88 L0 0 L315 0 C457 0 542 67 542 224 L542 321 L446 321 L446 217 C446 126 393 88 319 88 L186 88 L184 90 C209 110 220 141 220 195 L220 322 L331 322 L331 410 L331 410 Z " />
<glyph glyph-name="currency" unicode="&#xa4;" horiz-adv-x="556" d="M73 97 L128 155 C168 119 222 102 278 102 C334 102 388 119 428 155 L483 97 L531 145 L476 203 C509 243 526 294 526 350 C526 406 509 457 476 497 L531 555 L483 603 L428 545 C388 581 334 598 278 598 C222 598 168 581 128 545 L73 603 L25 555 L80 497 C47 457 30 406 30 350 C30 294 47 243 80 203 L25 145 L73 97 L73 97 Z M112 350 C112 444 186 522 278 522 C370 522 444 444 444 350 C444 256 370 178 278 178 C186 178 112 256 112 350 L112 350 Z " />
<glyph glyph-name="yen" unicode="&#xa5;" horiz-adv-x="556" d="M229 0 L327 0 L327 236 L514 236 L514 324 L327 324 L327 350 C327 362 328 373 330 384 L514 384 L514 472 L351 472 C384 554 452 614 544 612 L544 700 C425 696 306 626 279 500 L277 500 C250 626 131 696 12 700 L12 612 C104 614 172 554 205 472 L42 472 L42 384 L226 384 C228 373 229 362 229 350 L229 324 L42 324 L42 236 L229 236 L229 0 L229 0 Z " />
<glyph glyph-name="brokenbar" unicode="&#xa6;" horiz-adv-x="222" d="M72 0 L150 0 L150 262 L72 262 L72 0 L72 0 Z M72 438 L150 438 L150 700 L72 700 L72 438 L72 438 Z " />
<glyph glyph-name="section" unicode="&#xa7;" horiz-adv-x="500" d="M404 631 C360 682 319 712 249 712 C178 712 109 667 109 590 C109 544 138 507 168 472 C97 470 53 434 53 361 C53 246 307 102 307 8 C307 -26 277 -50 244 -50 C200 -50 167 -21 145 15 L82 -34 C130 -85 168 -118 241 -118 C312 -118 391 -79 391 2 C391 58 372 87 337 127 C393 139 447 170 447 240 C447 374 193 503 193 589 C193 621 219 644 251 644 C296 644 319 615 345 583 L404 631 L404 631 Z M137 370 C137 397 155 414 182 414 C232 414 363 269 363 226 C363 201 337 185 314 185 C269 185 137 319 137 370 L137 370 Z " />
<glyph glyph-name="dieresis" unicode="&#xa8;" horiz-adv-x="278" d="M163 600 C163 567 186 544 219 544 C252 544 275 567 275 600 C275 632 252 656 219 656 C186 656 163 632 163 600 L163 600 Z M3 600 C3 567 26 544 59 544 C92 544 115 567 115 600 C115 632 92 656 59 656 C26 656 3 632 3 600 L3 600 Z " />
<glyph glyph-name="copyright" unicode="&#xa9;" horiz-adv-x="800" d="M32 350 C32 137 203 -12 400 -12 C597 -12 768 137 768 350 C768 563 597 712 400 712 C203 712 32 563 32 350 L32 350 Z M116 350 C116 520 239 648 400 648 C561 648 684 520 684 350 C684 179 561 52 400 52 C239 52 116 179 116 350 L116 350 Z M520 285 C514 233 472 200 413 200 C332 200 282 270 282 353 C282 440 327 504 411 504 C468 504 511 472 520 421 L590 421 C576 519 502 572 411 572 C281 572 202 478 202 352 C202 228 285 132 413 132 C501 132 573 190 590 285 L520 285 L520 285 Z " />
<glyph glyph-name="ordfeminine" unicode="&#xaa;" horiz-adv-x="334" d="M328 418 L328 575 C328 658 265 712 169 712 C69 712 6 647 6 565 C6 480 72 412 161 412 C201 412 223 424 246 440 L246 502 C226 479 200 464 167 464 C107 464 68 507 68 561 C68 615 105 660 168 660 C220 660 266 634 266 580 L266 418 L328 418 L328 418 Z " />
<glyph glyph-name="guillemotleft" unicode="&#xab;" horiz-adv-x="500" d="M140 240 L264 394 L188 394 L64 240 L194 86 L270 86 L140 240 L140 240 Z M310 240 L434 394 L358 394 L234 240 L364 86 L440 86 L310 240 L310 240 Z " />
<glyph glyph-name="logicalnot" unicode="&#xac;" horiz-adv-x="600" d="M462 102 L540 102 L540 378 L60 378 L60 300 L462 300 L462 102 L462 102 Z " />
<glyph glyph-name="uni00AD" unicode="&#xad;" horiz-adv-x="278" d="M251 200 L251 280 L27 280 L27 200 L251 200 L251 200 Z " />
<glyph glyph-name="registered" unicode="&#xae;" horiz-adv-x="800" d="M32 350 C32 137 203 -12 400 -12 C597 -12 768 137 768 350 C768 563 597 712 400 712 C203 712 32 563 32 350 L32 350 Z M116 350 C116 520 239 648 400 648 C561 648 684 520 684 350 C684 179 561 52 400 52 C239 52 116 179 116 350 L116 350 Z M327 322 L393 322 L500 143 L574 143 L458 325 C521 332 566 363 566 438 C566 523 516 557 416 557 L259 557 L259 143 L327 143 L327 322 L327 322 Z M327 501 L409 501 C468 501 498 483 498 443 C498 396 472 378 413 378 L327 378 L327 501 L327 501 Z " />
<glyph glyph-name="macron" unicode="&#xaf;" horiz-adv-x="278" d="M294 572 L294 630 L-16 630 L-16 572 L294 572 L294 572 Z " />
<glyph glyph-name="degree" unicode="&#xb0;" horiz-adv-x="400" d="M105 569 C105 625 144 668 200 668 C256 668 295 625 295 569 C295 513 256 470 200 470 C144 470 105 513 105 569 L105 569 Z M57 569 C57 489 120 426 200 426 C280 426 343 489 343 569 C343 649 280 712 200 712 C120 712 57 649 57 569 L57 569 Z " />
<glyph glyph-name="plusminus" unicode="&#xb1;" horiz-adv-x="600" d="M261 335 L60 335 L60 257 L261 257 L261 112 L339 112 L339 257 L540 257 L540 335 L339 335 L339 480 L261 480 L261 335 L261 335 Z M60 0 L540 0 L540 78 L60 78 L60 0 L60 0 Z " />
<glyph glyph-name="twosuperior" unicode="&#xb2;" horiz-adv-x="333" d="M322 285 L322 339 L97 339 L97 341 L223 430 C284 473 327 511 327 580 C327 654 258 712 174 712 C89 712 13 661 13 578 C13 518 46 473 104 452 L165 491 C125 496 83 527 83 571 C83 623 117 658 175 658 C222 658 257 626 257 579 C257 544 232 514 208 496 L48 380 C19 359 7 352 7 329 C7 302 28 285 68 285 L322 285 L322 285 Z " />
<glyph glyph-name="threesuperior" unicode="&#xb3;" horiz-adv-x="333" d="M15 285 L186 285 C263 285 322 338 322 419 C322 494 260 541 175 541 L175 543 L236 590 C266 613 291 629 291 659 C291 690 270 705 227 705 L26 705 L26 651 L217 651 L217 649 L73 531 L73 487 L145 487 C213 487 252 458 252 417 C252 373 221 339 161 339 L15 339 L15 285 L15 285 Z " />
<glyph glyph-name="acute" unicode="&#xb4;" horiz-adv-x="278" d="M73 538 L141 538 L271 680 L163 680 L73 538 L73 538 Z " />
<glyph glyph-name="mu" unicode="&#xb5;" horiz-adv-x="500" d="M367 480 L367 200 C367 126 313 74 250 74 C187 74 133 126 133 200 L133 480 L45 480 L45 -216 L133 -216 L133 26 C165 2 205 -10 250 -10 C367 -10 455 74 455 200 L455 480 L367 480 L367 480 Z " />
<glyph glyph-name="paragraph" unicode="&#xb6;" horiz-adv-x="600" d="M242 -134 L326 -134 L326 636 L438 636 L438 -134 L522 -134 L522 700 L261 700 C122 700 28 646 28 512 C28 407 113 330 242 330 L242 -134 L242 -134 Z " />
<glyph glyph-name="periodcentered" unicode="&#xb7;" horiz-adv-x="278" d="M80 240 C80 207 107 181 139 181 C171 181 198 207 198 240 C198 273 171 299 139 299 C107 299 80 273 80 240 L80 240 Z " />
<glyph glyph-name="cedilla" unicode="&#xb8;" horiz-adv-x="278" d="M85 -96 C93 -93 109 -88 123 -88 C157 -88 171 -109 171 -128 C171 -154 154 -170 114 -170 C92 -170 70 -164 49 -155 L31 -194 C63 -208 96 -216 130 -216 C210 -216 247 -173 247 -124 C247 -78 212 -50 167 -50 C155 -50 144 -52 133 -53 L179 10 L131 10 L67 -76 L85 -96 L85 -96 Z " />
<glyph glyph-name="onesuperior" unicode="&#xb9;" horiz-adv-x="333" d="M79 705 L62 651 L140 651 L140 285 L210 285 L210 705 L79 705 L79 705 Z " />
<glyph glyph-name="ordmasculine" unicode="&#xba;" horiz-adv-x="334" d="M167 412 C253 412 333 473 333 562 C333 651 253 712 167 712 C80 712 1 651 1 562 C1 473 80 412 167 412 L167 412 Z M167 464 C108 464 67 503 67 562 C67 621 108 660 167 660 C226 660 267 621 267 562 C267 503 226 464 167 464 L167 464 Z " />
<glyph glyph-name="guillemotright" unicode="&#xbb;" horiz-adv-x="500" d="M360 240 L230 86 L306 86 L436 240 L312 394 L236 394 L360 240 L360 240 Z M190 240 L60 86 L136 86 L266 240 L142 394 L66 394 L190 240 L190 240 Z " />
<glyph glyph-name="onequarter" unicode="&#xbc;" horiz-adv-x="834" d="M233 -12 L665 712 L596 712 L164 -12 L233 -12 L233 -12 Z M536 150 L700 420 L627 420 L480 176 C469 157 461 146 461 132 C461 110 477 96 504 96 L669 96 L669 0 L739 0 L739 96 L803 96 L803 150 L739 150 L739 427 L736 425 L669 331 L669 150 L536 150 L536 150 Z M79 705 L62 651 L140 651 L140 285 L210 285 L210 705 L79 705 L79 705 Z " />
<glyph glyph-name="onehalf" unicode="&#xbd;" horiz-adv-x="834" d="M221 -12 L653 712 L584 712 L152 -12 L221 -12 L221 -12 Z M822 0 L822 54 L597 54 L597 56 L723 145 C784 188 827 226 827 295 C827 369 758 427 674 427 C589 427 513 376 513 293 C513 233 546 188 604 167 L665 206 C625 211 583 242 583 286 C583 338 617 373 675 373 C722 373 757 341 757 294 C757 259 732 229 708 211 L548 95 C519 74 507 67 507 44 C507 17 528 0 568 0 L822 0 L822 0 Z M79 705 L62 651 L140 651 L140 285 L210 285 L210 705 L79 705 L79 705 Z " />
<glyph glyph-name="threequarters" unicode="&#xbe;" horiz-adv-x="834" d="M263 -12 L695 712 L626 712 L194 -12 L263 -12 L263 -12 Z M15 285 L186 285 C263 285 322 338 322 419 C322 494 260 541 175 541 L175 543 L236 590 C266 613 291 629 291 659 C291 690 270 705 227 705 L26 705 L26 651 L217 651 L217 649 L73 531 L73 487 L145 487 C213 487 252 458 252 417 C252 373 221 339 161 339 L15 339 L15 285 L15 285 Z M536 150 L700 420 L627 420 L480 176 C469 157 461 146 461 132 C461 110 477 96 504 96 L669 96 L669 0 L739 0 L739 96 L803 96 L803 150 L739 150 L739 427 L736 425 L669 331 L669 150 L536 150 L536 150 Z " />
<glyph glyph-name="questiondown" unicode="&#xbf;" horiz-adv-x="444" d="M324 -6 C323 -78 290 -140 213 -140 C143 -140 100 -86 100 -18 C100 54 144 104 244 104 L270 104 L270 324 L182 324 L182 189 C80 171 6 92 6 -22 C6 -136 98 -228 206 -228 C333 -228 418 -132 418 -6 L324 -6 L324 -6 Z M288 434 C288 467 262 496 226 496 C189 496 164 467 164 434 C164 402 189 372 226 372 C262 372 288 402 288 434 L288 434 Z " />
<glyph glyph-name="Agrave" unicode="&#xc0;" horiz-adv-x="556" d="M133 0 L133 450 C133 560 192 624 278 624 C364 624 423 560 423 450 L423 406 L171 406 L171 318 L423 318 L423 0 L517 0 L517 444 C517 610 414 712 278 712 C142 712 39 610 39 444 L39 0 L133 0 L133 0 Z M146 882 L276 740 L344 740 L254 882 L146 882 L146 882 Z " />
<glyph glyph-name="Aacute" unicode="&#xc1;" horiz-adv-x="556" d="M133 0 L133 450 C133 560 192 624 278 624 C364 624 423 560 423 450 L423 406 L171 406 L171 318 L423 318 L423 0 L517 0 L517 444 C517 610 414 712 278 712 C142 712 39 610 39 444 L39 0 L133 0 L133 0 Z M212 740 L280 740 L410 882 L302 882 L212 740 L212 740 Z " />
<glyph glyph-name="Acircumflex" unicode="&#xc2;" horiz-adv-x="556" d="M133 0 L133 450 C133 560 192 624 278 624 C364 624 423 560 423 450 L423 406 L171 406 L171 318 L423 318 L423 0 L517 0 L517 444 C517 610 414 712 278 712 C142 712 39 610 39 444 L39 0 L133 0 L133 0 Z M132 740 L212 740 L278 834 L344 740 L424 740 L324 882 L232 882 L132 740 L132 740 Z " />
<glyph glyph-name="Atilde" unicode="&#xc3;" horiz-adv-x="556" d="M133 0 L133 450 C133 560 192 624 278 624 C364 624 423 560 423 450 L423 406 L171 406 L171 318 L423 318 L423 0 L517 0 L517 444 C517 610 414 712 278 712 C142 712 39 610 39 444 L39 0 L133 0 L133 0 Z M400 865 C397 838 381 820 350 820 C331 820 310 830 286 839 C263 848 238 858 212 858 C148 858 112 809 108 749 L156 749 C158 770 178 794 197 794 C211 794 238 784 267 775 C296 766 328 756 350 756 C406 756 443 815 448 865 L400 865 L400 865 Z " />
<glyph glyph-name="Adieresis" unicode="&#xc4;" horiz-adv-x="556" d="M133 0 L133 450 C133 560 192 624 278 624 C364 624 423 560 423 450 L423 406 L171 406 L171 318 L423 318 L423 0 L517 0 L517 444 C517 610 414 712 278 712 C142 712 39 610 39 444 L39 0 L133 0 L133 0 Z M302 802 C302 769 325 746 358 746 C391 746 414 769 414 802 C414 834 391 858 358 858 C325 858 302 834 302 802 L302 802 Z M142 802 C142 769 165 746 198 746 C231 746 254 769 254 802 C254 834 231 858 198 858 C165 858 142 834 142 802 L142 802 Z " />
<glyph glyph-name="Aring" unicode="&#xc5;" horiz-adv-x="556" d="M133 0 L133 450 C133 560 192 624 278 624 C364 624 423 560 423 450 L423 406 L171 406 L171 318 L423 318 L423 0 L517 0 L517 444 C517 610 414 712 278 712 C142 712 39 610 39 444 L39 0 L133 0 L133 0 Z M176 838 C176 781 219 736 278 736 C338 736 380 781 380 838 C380 894 338 940 278 940 C219 940 176 894 176 838 L176 838 Z M224 838 C224 870 246 892 278 892 C311 892 332 870 332 838 C332 806 311 784 278 784 C246 784 224 806 224 838 L224 838 Z " />
<glyph glyph-name="AE" unicode="&#xc6;" horiz-adv-x="889" d="M121 0 L121 450 C121 560 180 624 270 624 C360 624 420 560 420 450 L420 406 L161 406 L161 318 L420 318 L420 0 L514 0 L514 119 L516 119 C560 65 627 0 809 0 L856 0 L856 88 L765 88 C643 88 526 186 518 318 L856 318 L856 406 L518 406 C522 486 623 612 793 612 L856 612 L856 700 L793 700 C667 700 583 671 495 566 C461 655 385 712 266 712 C130 712 27 610 27 444 L27 0 L121 0 L121 0 Z " />
<glyph glyph-name="Ccedilla" unicode="&#xc7;" horiz-adv-x="500" d="M475 700 L401 700 C174 700 35 520 35 350 C35 162 163 18 340 1 L282 -76 L300 -96 C308 -93 324 -88 338 -88 C372 -88 386 -109 386 -128 C386 -154 369 -170 329 -170 C307 -170 285 -164 264 -155 L246 -194 C278 -208 311 -216 345 -216 C425 -216 462 -173 462 -124 C462 -78 427 -50 382 -50 C370 -50 359 -52 348 -53 L387 0 L475 0 L475 88 L375 88 C272 88 133 168 133 350 C133 500 251 612 411 612 L475 612 L475 700 L475 700 Z " />
<glyph glyph-name="Egrave" unicode="&#xc8;" horiz-adv-x="500" d="M459 406 L121 406 C125 476 213 612 396 612 L459 612 L459 700 L385 700 C175 700 23 548 23 350 C23 152 175 0 385 0 L459 0 L459 88 L368 88 C246 88 129 186 121 318 L459 318 L459 406 L459 406 Z M205 882 L335 740 L403 740 L313 882 L205 882 L205 882 Z " />
<glyph glyph-name="Eacute" unicode="&#xc9;" horiz-adv-x="500" d="M459 406 L121 406 C125 476 213 612 396 612 L459 612 L459 700 L385 700 C175 700 23 548 23 350 C23 152 175 0 385 0 L459 0 L459 88 L368 88 C246 88 129 186 121 318 L459 318 L459 406 L459 406 Z M271 740 L339 740 L469 882 L361 882 L271 740 L271 740 Z " />
<glyph glyph-name="Ecircumflex" unicode="&#xca;" horiz-adv-x="500" d="M459 406 L121 406 C125 476 213 612 396 612 L459 612 L459 700 L385 700 C175 700 23 548 23 350 C23 152 175 0 385 0 L459 0 L459 88 L368 88 C246 88 129 186 121 318 L459 318 L459 406 L459 406 Z M191 740 L271 740 L337 834 L403 740 L483 740 L383 882 L291 882 L191 740 L191 740 Z " />
<glyph glyph-name="Edieresis" unicode="&#xcb;" horiz-adv-x="500" d="M459 406 L121 406 C125 476 213 612 396 612 L459 612 L459 700 L385 700 C175 700 23 548 23 350 C23 152 175 0 385 0 L459 0 L459 88 L368 88 C246 88 129 186 121 318 L459 318 L459 406 L459 406 Z M361 802 C361 769 384 746 417 746 C450 746 473 769 473 802 C473 834 450 858 417 858 C384 858 361 834 361 802 L361 802 Z M201 802 C201 769 224 746 257 746 C290 746 313 769 313 802 C313 834 290 858 257 858 C224 858 201 834 201 802 L201 802 Z " />
<glyph glyph-name="Igrave" unicode="&#xcc;" horiz-adv-x="222" d="M158 0 L158 700 L64 700 L64 0 L158 0 L158 0 Z M-27 882 L103 740 L171 740 L81 882 L-27 882 L-27 882 Z " />
<glyph glyph-name="Iacute" unicode="&#xcd;" horiz-adv-x="222" d="M158 0 L158 700 L64 700 L64 0 L158 0 L158 0 Z M39 740 L107 740 L237 882 L129 882 L39 740 L39 740 Z " />
<glyph glyph-name="Icircumflex" unicode="&#xce;" horiz-adv-x="222" d="M158 0 L158 700 L64 700 L64 0 L158 0 L158 0 Z M-41 740 L39 740 L105 834 L171 740 L251 740 L151 882 L59 882 L-41 740 L-41 740 Z " />
<glyph glyph-name="Idieresis" unicode="&#xcf;" horiz-adv-x="222" d="M158 0 L158 700 L64 700 L64 0 L158 0 L158 0 Z M129 802 C129 769 152 746 185 746 C218 746 241 769 241 802 C241 834 218 858 185 858 C152 858 129 834 129 802 L129 802 Z M-31 802 C-31 769 -8 746 25 746 C58 746 81 769 81 802 C81 834 58 858 25 858 C-8 858 -31 834 -31 802 L-31 802 Z " />
<glyph glyph-name="Eth" unicode="&#xd0;" horiz-adv-x="611" d="M150 318 L320 318 L320 406 L150 406 L150 612 L207 612 C365 612 478 504 478 350 C478 202 372 88 241 88 L190 88 L190 0 L233 0 C431 0 576 162 576 350 C576 538 431 700 233 700 L56 700 L56 406 L-20 406 L-20 318 L56 318 L56 0 L150 0 L150 318 L150 318 Z " />
<glyph glyph-name="Ntilde" unicode="&#xd1;" horiz-adv-x="611" d="M144 0 L144 574 L146 574 L395 62 C421 8 443 -6 488 -6 C537 -6 560 23 560 61 L560 700 L466 700 L466 138 L464 138 L239 603 C205 674 186 706 132 706 C86 706 50 682 50 620 L50 0 L144 0 L144 0 Z M440 865 C437 838 421 820 390 820 C371 820 350 830 326 839 C303 848 278 858 252 858 C188 858 152 809 148 749 L196 749 C198 770 218 794 237 794 C251 794 278 784 307 775 C336 766 368 756 390 756 C446 756 483 815 488 865 L440 865 L440 865 Z " />
<glyph glyph-name="Ograve" unicode="&#xd2;" horiz-adv-x="778" d="M23 350 C23 148 191 -12 389 -12 C587 -12 755 148 755 350 C755 552 587 712 389 712 C191 712 23 552 23 350 L23 350 Z M121 350 C121 499 234 624 389 624 C544 624 657 499 657 350 C657 201 544 76 389 76 C234 76 121 201 121 350 L121 350 Z M257 882 L387 740 L455 740 L365 882 L257 882 L257 882 Z " />
<glyph glyph-name="Oacute" unicode="&#xd3;" horiz-adv-x="778" d="M23 350 C23 148 191 -12 389 -12 C587 -12 755 148 755 350 C755 552 587 712 389 712 C191 712 23 552 23 350 L23 350 Z M121 350 C121 499 234 624 389 624 C544 624 657 499 657 350 C657 201 544 76 389 76 C234 76 121 201 121 350 L121 350 Z M323 740 L391 740 L521 882 L413 882 L323 740 L323 740 Z " />
<glyph glyph-name="Ocircumflex" unicode="&#xd4;" horiz-adv-x="778" d="M23 350 C23 148 191 -12 389 -12 C587 -12 755 148 755 350 C755 552 587 712 389 712 C191 712 23 552 23 350 L23 350 Z M121 350 C121 499 234 624 389 624 C544 624 657 499 657 350 C657 201 544 76 389 76 C234 76 121 201 121 350 L121 350 Z M243 740 L323 740 L389 834 L455 740 L535 740 L435 882 L343 882 L243 740 L243 740 Z " />
<glyph glyph-name="Otilde" unicode="&#xd5;" horiz-adv-x="778" d="M23 350 C23 148 191 -12 389 -12 C587 -12 755 148 755 350 C755 552 587 712 389 712 C191 712 23 552 23 350 L23 350 Z M121 350 C121 499 234 624 389 624 C544 624 657 499 657 350 C657 201 544 76 389 76 C234 76 121 201 121 350 L121 350 Z M511 865 C508 838 492 820 461 820 C442 820 421 830 397 839 C374 848 349 858 323 858 C259 858 223 809 219 749 L267 749 C269 770 289 794 308 794 C322 794 349 784 378 775 C407 766 439 756 461 756 C517 756 554 815 559 865 L511 865 L511 865 Z " />
<glyph glyph-name="Odieresis" unicode="&#xd6;" horiz-adv-x="778" d="M23 350 C23 148 191 -12 389 -12 C587 -12 755 148 755 350 C755 552 587 712 389 712 C191 712 23 552 23 350 L23 350 Z M121 350 C121 499 234 624 389 624 C544 624 657 499 657 350 C657 201 544 76 389 76 C234 76 121 201 121 350 L121 350 Z M413 802 C413 769 436 746 469 746 C502 746 525 769 525 802 C525 834 502 858 469 858 C436 858 413 834 413 802 L413 802 Z M253 802 C253 769 276 746 309 746 C342 746 365 769 365 802 C365 834 342 858 309 858 C276 858 253 834 253 802 L253 802 Z " />
<glyph glyph-name="multiply" unicode="&#xd7;" horiz-adv-x="600" d="M245 240 L60 55 L115 0 L300 185 L485 0 L540 55 L355 240 L540 425 L485 480 L300 295 L115 480 L60 425 L245 240 L245 240 Z " />
<glyph glyph-name="Oslash" unicode="&#xd8;" horiz-adv-x="778" d="M177 180 C141 228 121 287 121 350 C121 499 234 624 389 624 C453 624 510 603 554 567 L177 180 L177 180 Z M600 520 C636 473 657 413 657 350 C657 201 544 76 389 76 C325 76 269 97 224 133 L600 520 L600 520 Z M83 -12 L161 68 C225 17 304 -12 389 -12 C587 -12 755 148 755 350 C755 442 721 524 665 587 L787 712 L695 712 L617 632 C553 683 474 712 389 712 C191 712 23 552 23 350 C23 259 57 176 113 114 L-9 -12 L83 -12 L83 -12 Z " />
<glyph glyph-name="Ugrave" unicode="&#xd9;" horiz-adv-x="556" d="M46 700 L46 230 C46 94 146 -12 277 -12 C408 -12 509 94 509 230 L509 700 L415 700 L415 240 C415 145 367 76 277 76 C187 76 140 145 140 240 L140 700 L46 700 L46 700 Z M146 882 L276 740 L344 740 L254 882 L146 882 L146 882 Z " />
<glyph glyph-name="Uacute" unicode="&#xda;" horiz-adv-x="556" d="M46 700 L46 230 C46 94 146 -12 277 -12 C408 -12 509 94 509 230 L509 700 L415 700 L415 240 C415 145 367 76 277 76 C187 76 140 145 140 240 L140 700 L46 700 L46 700 Z M212 740 L280 740 L410 882 L302 882 L212 740 L212 740 Z " />
<glyph glyph-name="Ucircumflex" unicode="&#xdb;" horiz-adv-x="556" d="M46 700 L46 230 C46 94 146 -12 277 -12 C408 -12 509 94 509 230 L509 700 L415 700 L415 240 C415 145 367 76 277 76 C187 76 140 145 140 240 L140 700 L46 700 L46 700 Z M132 740 L212 740 L278 834 L344 740 L424 740 L324 882 L232 882 L132 740 L132 740 Z " />
<glyph glyph-name="Udieresis" unicode="&#xdc;" horiz-adv-x="556" d="M46 700 L46 230 C46 94 146 -12 277 -12 C408 -12 509 94 509 230 L509 700 L415 700 L415 240 C415 145 367 76 277 76 C187 76 140 145 140 240 L140 700 L46 700 L46 700 Z M302 802 C302 769 325 746 358 746 C391 746 414 769 414 802 C414 834 391 858 358 858 C325 858 302 834 302 802 L302 802 Z M142 802 C142 769 165 746 198 746 C231 746 254 769 254 802 C254 834 231 858 198 858 C165 858 142 834 142 802 L142 802 Z " />
<glyph glyph-name="Yacute" unicode="&#xdd;" horiz-adv-x="500" d="M295 0 L295 274 C422 303 476 396 476 488 L476 700 L382 700 L382 487 C382 408 329 362 250 362 C170 362 117 408 117 487 L117 700 L23 700 L23 488 C23 396 77 303 201 274 L201 0 L295 0 L295 0 Z M207 740 L275 740 L405 882 L297 882 L207 740 L207 740 Z " />
<glyph glyph-name="Thorn" unicode="&#xde;" horiz-adv-x="500" d="M134 0 L134 354 C134 443 190 498 265 498 C342 498 401 446 401 361 C401 277 345 226 271 226 L171 226 L171 138 L288 138 C409 138 495 238 495 361 C495 480 406 586 264 586 C221 586 166 572 134 541 L134 700 L40 700 L40 0 L134 0 L134 0 Z " />
<glyph glyph-name="germandbls" unicode="&#xdf;" horiz-adv-x="611" d="M198 0 L198 507 C198 586 233 616 298 616 C350 616 377 590 377 548 C377 467 255 488 255 412 C255 328 485 343 485 183 C485 124 445 84 367 84 L232 84 L232 0 L380 0 C507 0 573 94 573 182 C573 314 465 377 353 416 C415 447 465 481 465 557 C465 634 402 700 292 700 C185 700 110 632 110 515 L110 460 L29 460 L7 376 L110 376 L110 0 L198 0 L198 0 Z " />
<glyph glyph-name="agrave" unicode="&#xe0;" horiz-adv-x="556" d="M516 0 L516 262 C516 400 422 490 274 490 C120 490 26 382 26 245 C26 104 124 -10 262 -10 C323 -10 357 10 392 36 L392 140 C362 102 321 74 271 74 C179 74 114 149 114 238 C114 329 175 406 272 406 C352 406 428 360 428 270 L428 0 L516 0 L516 0 Z M146 680 L276 538 L344 538 L254 680 L146 680 L146 680 Z " />
<glyph glyph-name="aacute" unicode="&#xe1;" horiz-adv-x="556" d="M516 0 L516 262 C516 400 422 490 274 490 C120 490 26 382 26 245 C26 104 124 -10 262 -10 C323 -10 357 10 392 36 L392 140 C362 102 321 74 271 74 C179 74 114 149 114 238 C114 329 175 406 272 406 C352 406 428 360 428 270 L428 0 L516 0 L516 0 Z M212 538 L280 538 L410 680 L302 680 L212 538 L212 538 Z " />
<glyph glyph-name="acircumflex" unicode="&#xe2;" horiz-adv-x="556" d="M516 0 L516 262 C516 400 422 490 274 490 C120 490 26 382 26 245 C26 104 124 -10 262 -10 C323 -10 357 10 392 36 L392 140 C362 102 321 74 271 74 C179 74 114 149 114 238 C114 329 175 406 272 406 C352 406 428 360 428 270 L428 0 L516 0 L516 0 Z M132 538 L212 538 L278 632 L344 538 L424 538 L324 680 L232 680 L132 538 L132 538 Z " />
<glyph glyph-name="atilde" unicode="&#xe3;" horiz-adv-x="556" d="M516 0 L516 262 C516 400 422 490 274 490 C120 490 26 382 26 245 C26 104 124 -10 262 -10 C323 -10 357 10 392 36 L392 140 C362 102 321 74 271 74 C179 74 114 149 114 238 C114 329 175 406 272 406 C352 406 428 360 428 270 L428 0 L516 0 L516 0 Z M400 663 C397 636 381 618 350 618 C331 618 310 628 286 637 C263 646 238 656 212 656 C148 656 112 607 108 547 L156 547 C158 568 178 592 197 592 C211 592 238 582 267 573 C296 564 328 554 350 554 C406 554 443 613 448 663 L400 663 L400 663 Z " />
<glyph glyph-name="adieresis" unicode="&#xe4;" horiz-adv-x="556" d="M516 0 L516 262 C516 400 422 490 274 490 C120 490 26 382 26 245 C26 104 124 -10 262 -10 C323 -10 357 10 392 36 L392 140 C362 102 321 74 271 74 C179 74 114 149 114 238 C114 329 175 406 272 406 C352 406 428 360 428 270 L428 0 L516 0 L516 0 Z M302 600 C302 567 325 544 358 544 C391 544 414 567 414 600 C414 632 391 656 358 656 C325 656 302 632 302 600 L302 600 Z M142 600 C142 567 165 544 198 544 C231 544 254 567 254 600 C254 632 231 656 198 656 C165 656 142 632 142 600 L142 600 Z " />
<glyph glyph-name="aring" unicode="&#xe5;" horiz-adv-x="556" d="M516 0 L516 262 C516 400 422 490 274 490 C120 490 26 382 26 245 C26 104 124 -10 262 -10 C323 -10 357 10 392 36 L392 140 C362 102 321 74 271 74 C179 74 114 149 114 238 C114 329 175 406 272 406 C352 406 428 360 428 270 L428 0 L516 0 L516 0 Z M176 636 C176 579 219 534 278 534 C338 534 380 579 380 636 C380 692 338 738 278 738 C219 738 176 692 176 636 L176 636 Z M224 636 C224 668 246 690 278 690 C311 690 332 668 332 636 C332 604 311 582 278 582 C246 582 224 604 224 636 L224 636 Z " />
<glyph glyph-name="ae" unicode="&#xe6;" horiz-adv-x="889" d="M67 363 C116 390 162 406 219 406 C264 406 318 391 342 350 C241 335 17 284 17 138 C17 39 105 -10 202 -10 C288 -10 374 29 417 108 C456 38 532 -10 628 -10 C744 -10 829 57 868 177 L788 212 C767 137 715 74 630 74 C533 74 465 151 465 245 C465 327 528 406 614 406 C662 406 702 388 730 352 L502 257 L533 183 L859 319 C823 398 763 490 614 490 C522 490 450 436 425 383 C384 456 311 490 224 490 C147 490 87 468 27 433 L67 363 L67 363 Z M373 233 C373 140 301 74 201 74 C134 74 109 96 109 132 C109 229 309 266 373 276 L373 233 L373 233 Z " />
<glyph glyph-name="ccedilla" unicode="&#xe7;" horiz-adv-x="389" d="M368 480 L284 480 C172 480 43 394 43 240 C43 106 141 23 240 4 L181 -76 L199 -96 C207 -93 223 -88 237 -88 C271 -88 285 -109 285 -128 C285 -154 268 -170 228 -170 C206 -170 184 -164 163 -155 L145 -194 C177 -208 210 -216 244 -216 C324 -216 361 -173 361 -124 C361 -78 326 -50 281 -50 C269 -50 258 -52 247 -53 L286 0 L368 0 L368 84 L300 84 C217 84 135 138 135 240 C135 342 217 396 300 396 L368 396 L368 480 L368 480 Z " />
<glyph glyph-name="egrave" unicode="&#xe8;" horiz-adv-x="556" d="M511 338 C466 431 391 490 279 490 C146 490 30 388 30 240 C30 92 146 -10 279 -10 C417 -10 519 86 529 213 L440 224 C422 136 383 74 279 74 C188 74 122 142 122 240 C122 338 188 406 279 406 C333 406 358 390 388 360 L151 228 L187 158 L511 338 L511 338 Z M146 680 L276 538 L344 538 L254 680 L146 680 L146 680 Z " />
<glyph glyph-name="eacute" unicode="&#xe9;" horiz-adv-x="556" d="M511 338 C466 431 391 490 279 490 C146 490 30 388 30 240 C30 92 146 -10 279 -10 C417 -10 519 86 529 213 L440 224 C422 136 383 74 279 74 C188 74 122 142 122 240 C122 338 188 406 279 406 C333 406 358 390 388 360 L151 228 L187 158 L511 338 L511 338 Z M212 538 L280 538 L410 680 L302 680 L212 538 L212 538 Z " />
<glyph glyph-name="ecircumflex" unicode="&#xea;" horiz-adv-x="556" d="M511 338 C466 431 391 490 279 490 C146 490 30 388 30 240 C30 92 146 -10 279 -10 C417 -10 519 86 529 213 L440 224 C422 136 383 74 279 74 C188 74 122 142 122 240 C122 338 188 406 279 406 C333 406 358 390 388 360 L151 228 L187 158 L511 338 L511 338 Z M132 538 L212 538 L278 632 L344 538 L424 538 L324 680 L232 680 L132 538 L132 538 Z " />
<glyph glyph-name="edieresis" unicode="&#xeb;" horiz-adv-x="556" d="M511 338 C466 431 391 490 279 490 C146 490 30 388 30 240 C30 92 146 -10 279 -10 C417 -10 519 86 529 213 L440 224 C422 136 383 74 279 74 C188 74 122 142 122 240 C122 338 188 406 279 406 C333 406 358 390 388 360 L151 228 L187 158 L511 338 L511 338 Z M302 600 C302 567 325 544 358 544 C391 544 414 567 414 600 C414 632 391 656 358 656 C325 656 302 632 302 600 L302 600 Z M142 600 C142 567 165 544 198 544 C231 544 254 567 254 600 C254 632 231 656 198 656 C165 656 142 632 142 600 L142 600 Z " />
<glyph glyph-name="igrave" unicode="&#xec;" horiz-adv-x="278" d="M183 0 L183 480 L95 480 L95 0 L183 0 L183 0 Z M7 680 L137 538 L205 538 L115 680 L7 680 L7 680 Z " />
<glyph glyph-name="iacute" unicode="&#xed;" horiz-adv-x="278" d="M183 0 L183 480 L95 480 L95 0 L183 0 L183 0 Z M73 538 L141 538 L271 680 L163 680 L73 538 L73 538 Z " />
<glyph glyph-name="icircumflex" unicode="&#xee;" horiz-adv-x="278" d="M183 0 L183 480 L95 480 L95 0 L183 0 L183 0 Z M-7 538 L73 538 L139 632 L205 538 L285 538 L185 680 L93 680 L-7 538 L-7 538 Z " />
<glyph glyph-name="idieresis" unicode="&#xef;" horiz-adv-x="278" d="M183 0 L183 480 L95 480 L95 0 L183 0 L183 0 Z M163 600 C163 567 186 544 219 544 C252 544 275 567 275 600 C275 632 252 656 219 656 C186 656 163 632 163 600 L163 600 Z M3 600 C3 567 26 544 59 544 C92 544 115 567 115 600 C115 632 92 656 59 656 C26 656 3 632 3 600 L3 600 Z " />
<glyph glyph-name="eth" unicode="&#xf0;" horiz-adv-x="556" d="M150 656 C176 646 204 631 233 611 L142 564 L190 506 L296 561 C374 486 435 382 435 268 C435 142 369 74 278 74 C187 74 121 142 121 240 C121 338 187 406 278 406 C319 406 353 392 375 372 L377 372 C368 407 341 459 321 487 C303 489 290 490 278 490 C145 490 29 388 29 240 C29 92 145 -10 278 -10 C411 -10 527 92 527 268 C527 397 456 518 370 600 L461 649 L412 707 L309 652 C270 682 237 699 204 712 L150 656 L150 656 Z " />
<glyph glyph-name="ntilde" unicode="&#xf1;" horiz-adv-x="500" d="M133 0 L133 280 C133 354 187 406 250 406 C313 406 367 354 367 280 L367 0 L455 0 L455 280 C455 406 367 490 250 490 C133 490 45 406 45 280 L45 0 L133 0 L133 0 Z M372 663 C369 636 353 618 322 618 C303 618 282 628 258 637 C235 646 210 656 184 656 C120 656 84 607 80 547 L128 547 C130 568 150 592 169 592 C183 592 210 582 239 573 C268 564 300 554 322 554 C378 554 415 613 420 663 L372 663 L372 663 Z " />
<glyph glyph-name="ograve" unicode="&#xf2;" horiz-adv-x="556" d="M29 240 C29 92 145 -10 278 -10 C411 -10 527 92 527 240 C527 388 411 490 278 490 C145 490 29 388 29 240 L29 240 Z M121 240 C121 338 187 406 278 406 C369 406 435 338 435 240 C435 142 369 74 278 74 C187 74 121 142 121 240 L121 240 Z M146 680 L276 538 L344 538 L254 680 L146 680 L146 680 Z " />
<glyph glyph-name="oacute" unicode="&#xf3;" horiz-adv-x="556" d="M29 240 C29 92 145 -10 278 -10 C411 -10 527 92 527 240 C527 388 411 490 278 490 C145 490 29 388 29 240 L29 240 Z M121 240 C121 338 187 406 278 406 C369 406 435 338 435 240 C435 142 369 74 278 74 C187 74 121 142 121 240 L121 240 Z M212 538 L280 538 L410 680 L302 680 L212 538 L212 538 Z " />
<glyph glyph-name="ocircumflex" unicode="&#xf4;" horiz-adv-x="556" d="M29 240 C29 92 145 -10 278 -10 C411 -10 527 92 527 240 C527 388 411 490 278 490 C145 490 29 388 29 240 L29 240 Z M121 240 C121 338 187 406 278 406 C369 406 435 338 435 240 C435 142 369 74 278 74 C187 74 121 142 121 240 L121 240 Z M132 538 L212 538 L278 632 L344 538 L424 538 L324 680 L232 680 L132 538 L132 538 Z " />
<glyph glyph-name="otilde" unicode="&#xf5;" horiz-adv-x="556" d="M29 240 C29 92 145 -10 278 -10 C411 -10 527 92 527 240 C527 388 411 490 278 490 C145 490 29 388 29 240 L29 240 Z M121 240 C121 338 187 406 278 406 C369 406 435 338 435 240 C435 142 369 74 278 74 C187 74 121 142 121 240 L121 240 Z M400 663 C397 636 381 618 350 618 C331 618 310 628 286 637 C263 646 238 656 212 656 C148 656 112 607 108 547 L156 547 C158 568 178 592 197 592 C211 592 238 582 267 573 C296 564 328 554 350 554 C406 554 443 613 448 663 L400 663 L400 663 Z " />
<glyph glyph-name="odieresis" unicode="&#xf6;" horiz-adv-x="556" d="M29 240 C29 92 145 -10 278 -10 C411 -10 527 92 527 240 C527 388 411 490 278 490 C145 490 29 388 29 240 L29 240 Z M121 240 C121 338 187 406 278 406 C369 406 435 338 435 240 C435 142 369 74 278 74 C187 74 121 142 121 240 L121 240 Z M302 600 C302 567 325 544 358 544 C391 544 414 567 414 600 C414 632 391 656 358 656 C325 656 302 632 302 600 L302 600 Z M142 600 C142 567 165 544 198 544 C231 544 254 567 254 600 C254 632 231 656 198 656 C165 656 142 632 142 600 L142 600 Z " />
<glyph glyph-name="divide" unicode="&#xf7;" horiz-adv-x="600" d="M540 201 L540 279 L60 279 L60 201 L540 201 L540 201 Z M232 436 C232 401 258 368 300 368 C342 368 368 401 368 436 C368 471 342 504 300 504 C258 504 232 471 232 436 L232 436 Z M232 44 C232 9 258 -24 300 -24 C342 -24 368 9 368 44 C368 79 342 112 300 112 C258 112 232 79 232 44 L232 44 Z " />
<glyph glyph-name="oslash" unicode="&#xf8;" horiz-adv-x="556" d="M145 147 C129 174 121 205 121 240 C121 338 187 406 278 406 C313 406 345 396 369 378 L145 147 L145 147 Z M411 333 C426 308 435 276 435 240 C435 142 369 74 278 74 C243 74 212 84 187 102 L411 333 L411 333 Z M477 490 L429 440 C387 472 334 490 278 490 C145 490 29 388 29 240 C29 179 49 126 83 83 L-7 -10 L79 -10 L127 40 C168 9 221 -10 278 -10 C411 -10 527 92 527 240 C527 302 507 356 473 397 L563 490 L477 490 L477 490 Z " />
<glyph glyph-name="ugrave" unicode="&#xf9;" horiz-adv-x="500" d="M367 480 L367 200 C367 126 313 74 250 74 C187 74 133 126 133 200 L133 480 L45 480 L45 200 C45 74 133 -10 250 -10 C367 -10 455 74 455 200 L455 480 L367 480 L367 480 Z M118 680 L248 538 L316 538 L226 680 L118 680 L118 680 Z " />
<glyph glyph-name="uacute" unicode="&#xfa;" horiz-adv-x="500" d="M367 480 L367 200 C367 126 313 74 250 74 C187 74 133 126 133 200 L133 480 L45 480 L45 200 C45 74 133 -10 250 -10 C367 -10 455 74 455 200 L455 480 L367 480 L367 480 Z M184 538 L252 538 L382 680 L274 680 L184 538 L184 538 Z " />
<glyph glyph-name="ucircumflex" unicode="&#xfb;" horiz-adv-x="500" d="M367 480 L367 200 C367 126 313 74 250 74 C187 74 133 126 133 200 L133 480 L45 480 L45 200 C45 74 133 -10 250 -10 C367 -10 455 74 455 200 L455 480 L367 480 L367 480 Z M104 538 L184 538 L250 632 L316 538 L396 538 L296 680 L204 680 L104 538 L104 538 Z " />
<glyph glyph-name="udieresis" unicode="&#xfc;" horiz-adv-x="500" d="M367 480 L367 200 C367 126 313 74 250 74 C187 74 133 126 133 200 L133 480 L45 480 L45 200 C45 74 133 -10 250 -10 C367 -10 455 74 455 200 L455 480 L367 480 L367 480 Z M274 600 C274 567 297 544 330 544 C363 544 386 567 386 600 C386 632 363 656 330 656 C297 656 274 632 274 600 L274 600 Z M114 600 C114 567 137 544 170 544 C203 544 226 567 226 600 C226 632 203 656 170 656 C137 656 114 632 114 600 L114 600 Z " />
<glyph glyph-name="yacute" unicode="&#xfd;" horiz-adv-x="500" d="M50 480 L50 191 C50 81 104 17 206 -10 L206 -216 L294 -216 L294 -10 C396 17 450 81 450 191 L450 480 L362 480 L362 192 C362 126 324 74 250 74 C176 74 138 126 138 192 L138 480 L50 480 L50 480 Z M184 538 L252 538 L382 680 L274 680 L184 538 L184 538 Z " />
<glyph glyph-name="thorn" unicode="&#xfe;" horiz-adv-x="556" d="M128 -216 L128 210 C128 342 198 406 282 406 C376 406 442 337 442 239 C442 140 379 74 284 74 C244 74 195 94 163 116 L163 24 C205 0 251 -10 299 -10 C422 -10 530 94 530 228 C530 370 438 490 282 490 C225 490 174 473 128 434 L128 700 L40 700 L40 -216 L128 -216 L128 -216 Z " />
<glyph glyph-name="ydieresis" unicode="&#xff;" horiz-adv-x="500" d="M50 480 L50 191 C50 81 104 17 206 -10 L206 -216 L294 -216 L294 -10 C396 17 450 81 450 191 L450 480 L362 480 L362 192 C362 126 324 74 250 74 C176 74 138 126 138 192 L138 480 L50 480 L50 480 Z M274 600 C274 567 297 544 330 544 C363 544 386 567 386 600 C386 632 363 656 330 656 C297 656 274 632 274 600 L274 600 Z M114 600 C114 567 137 544 170 544 C203 544 226 567 226 600 C226 632 203 656 170 656 C137 656 114 632 114 600 L114 600 Z " />
<glyph glyph-name="dotlessi" unicode="&#x131;" horiz-adv-x="278" d="M183 0 L183 480 L95 480 L95 0 L183 0 L183 0 Z " />
<glyph glyph-name="Lslash" unicode="&#x141;" horiz-adv-x="389" d="M273 520 L158 467 L158 700 L64 700 L64 424 L-12 388 L-12 308 L64 344 L64 226 C64 94 151 0 286 0 L391 0 L391 88 L300 88 C202 88 158 141 158 249 L158 387 L273 440 L273 520 L273 520 Z " />
<glyph glyph-name="lslash" unicode="&#x142;" horiz-adv-x="222" d="M155 388 L220 408 L220 480 L155 460 L155 700 L67 700 L67 434 L2 414 L2 342 L67 362 L67 0 L155 0 L155 388 L155 388 Z " />
<glyph glyph-name="OE" unicode="&#x152;" horiz-adv-x="1000" d="M988 406 L688 406 C691 486 792 612 962 612 L988 612 L988 700 L943 700 C815 700 705 660 636 527 C582 652 463 712 337 712 C157 712 0 542 0 350 C0 158 157 -12 337 -12 C463 -12 582 48 636 173 C705 40 815 0 943 0 L988 0 L988 88 L934 88 C812 88 695 186 688 318 L988 318 L988 406 L988 406 Z M94 350 C94 490 198 624 342 624 C486 624 590 490 590 350 C590 210 486 76 342 76 C198 76 94 210 94 350 L94 350 Z " />
<glyph glyph-name="oe" unicode="&#x153;" horiz-adv-x="944" d="M925 312 C884 414 820 490 688 490 C583 490 529 454 471 382 C428 446 352 490 263 490 C130 490 14 388 14 240 C14 92 130 -10 263 -10 C353 -10 421 31 475 102 C520 32 593 -10 678 -10 C809 -10 887 67 930 186 L843 219 C821 127 772 74 678 74 C599 74 518 154 518 240 C518 338 584 406 678 406 C725 406 774 384 801 348 L553 240 L585 166 L925 312 L925 312 Z M106 240 C106 338 172 406 266 406 C360 406 426 338 426 240 C426 142 360 74 266 74 C172 74 106 142 106 240 L106 240 Z " />
<glyph glyph-name="Scaron" unicode="&#x160;" horiz-adv-x="500" d="M24 0 L281 0 C405 0 475 75 475 187 C475 400 123 400 123 529 C123 583 156 612 208 612 L444 612 L444 700 L221 700 C111 700 29 638 29 524 C29 316 381 322 381 179 C381 118 347 88 264 88 L24 88 L24 0 L24 0 Z M339 882 L273 788 L207 882 L127 882 L227 740 L319 740 L419 882 L339 882 L339 882 Z " />
<glyph glyph-name="scaron" unicode="&#x161;" horiz-adv-x="444" d="M28 0 L274 0 C359 0 423 43 423 134 C423 306 119 271 120 354 C121 384 134 396 177 396 L399 396 L399 480 L192 480 C87 480 28 435 28 350 C28 184 331 218 331 130 C331 100 315 84 274 84 L28 84 L28 0 L28 0 Z M288 680 L222 586 L156 680 L76 680 L176 538 L268 538 L368 680 L288 680 L288 680 Z " />
<glyph glyph-name="Ydieresis" unicode="&#x178;" horiz-adv-x="500" d="M295 0 L295 274 C422 303 476 396 476 488 L476 700 L382 700 L382 487 C382 408 329 362 250 362 C170 362 117 408 117 487 L117 700 L23 700 L23 488 C23 396 77 303 201 274 L201 0 L295 0 L295 0 Z M297 802 C297 769 320 746 353 746 C386 746 409 769 409 802 C409 834 386 858 353 858 C320 858 297 834 297 802 L297 802 Z M137 802 C137 769 160 746 193 746 C226 746 249 769 249 802 C249 834 226 858 193 858 C160 858 137 834 137 802 L137 802 Z " />
<glyph glyph-name="Zcaron" unicode="&#x17d;" horiz-adv-x="500" d="M370 612 L55 174 C32 142 12 112 12 68 C12 36 38 0 88 0 L479 0 L479 88 L114 88 L427 532 C453 568 468 600 468 640 C468 670 446 700 386 700 L49 700 L49 612 L370 612 L370 612 Z M339 882 L273 788 L207 882 L127 882 L227 740 L319 740 L419 882 L339 882 L339 882 Z " />
<glyph glyph-name="zcaron" unicode="&#x17e;" horiz-adv-x="389" d="M364 84 L116 84 L345 364 C356 377 360 395 360 416 C360 455 328 480 268 480 L35 480 L35 396 L262 396 L66 156 C34 117 18 94 18 63 C18 22 46 0 90 0 L364 0 L364 84 L364 84 Z M261 680 L195 586 L129 680 L49 680 L149 538 L241 538 L341 680 L261 680 L261 680 Z " />
<glyph glyph-name="florin" unicode="&#x192;" horiz-adv-x="556" d="M124 344 L250 344 L188 -11 C171 -109 138 -140 84 -140 C57 -140 37 -134 20 -126 L6 -214 C24 -221 49 -228 102 -228 C199 -228 256 -162 283 -13 L347 344 L500 344 L500 432 L362 432 L380 521 C395 593 430 624 477 624 C501 624 516 620 534 614 L550 698 C523 706 488 712 465 712 C373 712 316 654 290 531 L269 432 L124 432 L124 344 L124 344 Z " />
<glyph glyph-name="circumflex" unicode="&#x2c6;" horiz-adv-x="278" d="M-7 538 L73 538 L139 632 L205 538 L285 538 L185 680 L93 680 L-7 538 L-7 538 Z " />
<glyph glyph-name="caron" unicode="&#x2c7;" horiz-adv-x="278" d="M205 680 L139 586 L73 680 L-7 680 L93 538 L185 538 L285 680 L205 680 L205 680 Z " />
<glyph glyph-name="uni02C9" unicode="&#x2c9;" horiz-adv-x="278" d="M294 572 L294 630 L-16 630 L-16 572 L294 572 L294 572 Z " />
<glyph glyph-name="breve" unicode="&#x2d8;" horiz-adv-x="278" d="M-15 678 C-12 588 48 543 135 543 C225 543 281 587 293 678 L244 678 C232 626 198 601 144 601 C89 601 44 619 34 678 L-15 678 L-15 678 Z " />
<glyph glyph-name="dotaccent" unicode="&#x2d9;" horiz-adv-x="278" d="M83 600 C83 567 106 544 139 544 C172 544 195 567 195 600 C195 632 172 656 139 656 C106 656 83 632 83 600 L83 600 Z " />
<glyph glyph-name="ring" unicode="&#x2da;" horiz-adv-x="278" d="M37 636 C37 579 80 534 139 534 C199 534 241 579 241 636 C241 692 199 738 139 738 C80 738 37 692 37 636 L37 636 Z M85 636 C85 668 107 690 139 690 C172 690 193 668 193 636 C193 604 172 582 139 582 C107 582 85 604 85 636 L85 636 Z " />
<glyph glyph-name="ogonek" unicode="&#x2db;" horiz-adv-x="278" d="M229 -155 C208 -164 186 -170 164 -170 C124 -170 107 -154 107 -128 C107 -77 139 -35 233 -10 L233 0 C88 -2 31 -70 31 -124 C31 -173 68 -216 148 -216 C182 -216 215 -208 247 -194 L229 -155 L229 -155 Z " />
<glyph glyph-name="tilde" unicode="&#x2dc;" horiz-adv-x="278" d="M261 663 C258 636 242 618 211 618 C192 618 171 628 147 637 C124 646 99 656 73 656 C9 656 -27 607 -31 547 L17 547 C19 568 39 592 58 592 C72 592 99 582 128 573 C157 564 189 554 211 554 C267 554 304 613 309 663 L261 663 L261 663 Z " />
<glyph glyph-name="hungarumlaut" unicode="&#x2dd;" horiz-adv-x="278" d="M162 538 L230 538 L360 680 L252 680 L162 538 L162 538 Z M-7 538 L61 538 L176 680 L68 680 L-7 538 L-7 538 Z " />
<glyph glyph-name="uni03A9" unicode="&#x3a9;" horiz-adv-x="714" d="M189 77 L45 77 L45 0 L293 0 L293 57 C222 101 154 215 154 362 C154 513 234 630 359 630 C490 630 559 494 559 366 C559 206 490 103 419 57 L419 0 L668 0 L668 77 L522 77 L522 80 C588 137 654 245 654 385 C654 548 544 709 360 709 C186 709 58 568 58 379 C58 244 121 141 189 80 L189 77 Z " />
<glyph glyph-name="uni03BC" unicode="&#x3bc;" horiz-adv-x="500" d="M367 480 L367 200 C367 126 313 74 250 74 C187 74 133 126 133 200 L133 480 L45 480 L45 -216 L133 -216 L133 26 C165 2 205 -10 250 -10 C367 -10 455 74 455 200 L455 480 L367 480 L367 480 Z " />
<glyph glyph-name="pi" unicode="&#x3c0;" horiz-adv-x="580" d="M555 441 L564 521 L158 521 C78 521 33 509 8 492 L20 429 C41 436 69 441 126 441 C123 315 94 111 58 0 L150 0 C186 98 214 319 220 441 L384 441 L384 141 C384 63 391 18 401 0 L493 0 C485 28 479 68 479 148 L479 441 L555 441 Z " />
<glyph glyph-name="endash" unicode="&#x2013;" horiz-adv-x="500" d="M500 208 L500 272 L0 272 L0 208 L500 208 L500 208 Z " />
<glyph glyph-name="emdash" unicode="&#x2014;" horiz-adv-x="1000" d="M1000 208 L1000 272 L0 272 L0 208 L1000 208 L1000 208 Z " />
<glyph glyph-name="quoteleft" unicode="&#x2018;" horiz-adv-x="222" d="M130 700 L46 700 L92 498 L166 498 L130 700 L130 700 Z " />
<glyph glyph-name="quoteright" unicode="&#x2019;" horiz-adv-x="222" d="M130 498 L176 700 L92 700 L56 498 L130 498 L130 498 Z " />
<glyph glyph-name="quotesinglbase" unicode="&#x201a;" horiz-adv-x="222" d="M110 -102 L156 100 L72 100 L36 -102 L110 -102 L110 -102 Z " />
<glyph glyph-name="quotedblleft" unicode="&#x201c;" horiz-adv-x="389" d="M126 700 L42 700 L88 498 L162 498 L126 700 L126 700 Z M311 700 L227 700 L273 498 L347 498 L311 700 L311 700 Z " />
<glyph glyph-name="quotedblright" unicode="&#x201d;" horiz-adv-x="389" d="M116 498 L162 700 L78 700 L42 498 L116 498 L116 498 Z M301 498 L347 700 L263 700 L227 498 L301 498 L301 498 Z " />
<glyph glyph-name="quotedblbase" unicode="&#x201e;" horiz-adv-x="389" d="M116 -102 L162 100 L78 100 L42 -102 L116 -102 L116 -102 Z M301 -102 L347 100 L263 100 L227 -102 L301 -102 L301 -102 Z " />
<glyph glyph-name="dagger" unicode="&#x2020;" horiz-adv-x="500" d="M65 524 L65 428 L229 458 L201 290 C209 256 231 60 231 -58 L231 -134 L269 -134 L269 -58 C269 60 291 256 299 290 L271 458 L435 428 L435 524 L271 494 L297 700 L203 700 L229 494 L65 524 L65 524 Z " />
<glyph glyph-name="daggerdbl" unicode="&#x2021;" horiz-adv-x="500" d="M201 700 L229 494 L65 524 L65 428 L229 458 L201 283 L229 108 L65 139 L65 42 L229 72 L201 -134 L299 -134 L271 72 L435 42 L435 139 L271 108 L299 283 L271 458 L435 428 L435 524 L271 494 L299 700 L201 700 L201 700 Z " />
<glyph glyph-name="bullet" unicode="&#x2022;" horiz-adv-x="500" d="M75 350 C75 253 152 175 250 175 C348 175 425 253 425 350 C425 447 348 525 250 525 C152 525 75 447 75 350 L75 350 Z " />
<glyph glyph-name="ellipsis" unicode="&#x2026;" horiz-adv-x="1000" d="M108 53 C108 20 135 -6 167 -6 C199 -6 226 20 226 53 C226 86 199 112 167 112 C135 112 108 86 108 53 L108 53 Z M441 53 C441 20 468 -6 500 -6 C532 -6 559 20 559 53 C559 86 532 112 500 112 C468 112 441 86 441 53 L441 53 Z M774 53 C774 20 801 -6 833 -6 C865 -6 892 20 892 53 C892 86 865 112 833 112 C801 112 774 86 774 53 L774 53 Z " />
<glyph glyph-name="perthousand" unicode="&#x2030;" horiz-adv-x="1000" d="M769 152 C769 202 809 238 855 238 C901 238 941 202 941 152 C941 102 901 66 855 66 C809 66 769 102 769 152 L769 152 Z M594 712 L532 712 L67 -12 L129 -12 L594 712 L594 712 Z M67 548 C67 598 107 634 153 634 C199 634 239 598 239 548 C239 498 199 462 153 462 C107 462 67 498 67 548 L67 548 Z M691 152 C691 54 771 -12 855 -12 C939 -12 1019 54 1019 152 C1019 250 939 316 855 316 C771 316 691 250 691 152 L691 152 Z M-11 548 C-11 450 69 384 153 384 C237 384 317 450 317 548 C317 646 237 712 153 712 C69 712 -11 646 -11 548 L-11 548 Z M413 152 C413 202 453 238 499 238 C545 238 585 202 585 152 C585 102 545 66 499 66 C453 66 413 102 413 152 L413 152 Z M335 152 C335 54 415 -12 499 -12 C583 -12 663 54 663 152 C663 250 583 316 499 316 C415 316 335 250 335 152 L335 152 Z " />
<glyph glyph-name="guilsinglleft" unicode="&#x2039;" horiz-adv-x="333" d="M145 240 L269 394 L193 394 L69 240 L199 86 L275 86 L145 240 L145 240 Z " />
<glyph glyph-name="guilsinglright" unicode="&#x203a;" horiz-adv-x="333" d="M188 240 L58 86 L134 86 L264 240 L140 394 L64 394 L188 240 L188 240 Z " />
<glyph glyph-name="fraction" unicode="&#x2044;" horiz-adv-x="167" d="M-98 -12 L334 712 L265 712 L-167 -12 L-98 -12 L-98 -12 Z " />
<glyph glyph-name="Euro" unicode="&#x20ac;" horiz-adv-x="556" d="M425 246 L425 329 L194 329 C194 336 193 343 193 350 C193 363 194 376 196 389 L425 389 L425 472 L222 472 C267 557 359 612 471 612 L535 612 L535 700 L461 700 C289 700 168 596 119 472 L34 472 L34 389 L97 389 C95 376 95 363 95 350 C95 343 96 336 96 329 L34 329 L34 246 L109 246 C150 100 276 0 435 0 L535 0 L535 88 L435 88 C354 88 252 137 211 246 L425 246 Z " />
<glyph glyph-name="afii61289" unicode="&#x2113;" horiz-adv-x="495" d="M432 162 C406 117 359 67 299 67 C245 67 199 109 198 205 L197 242 C320 361 400 478 400 601 C400 694 359 769 270 769 C187 769 107 704 107 524 L107 258 C83 235 56 214 27 189 L53 137 C72 152 91 168 108 182 C108 178 108 174 109 169 C115 75 163 -8 279 -8 C357 -8 426 32 473 123 L432 162 Z M197 528 C197 659 238 700 272 700 C320 700 338 661 338 602 C338 514 277 420 197 331 L197 528 Z " />
<glyph glyph-name="trademark" unicode="&#x2122;" horiz-adv-x="990" d="M386 700 L54 700 L54 636 L178 636 L178 288 L262 288 L262 636 L386 636 L386 700 L386 700 Z M587 700 L462 700 L462 288 L546 288 L546 612 L548 612 L671 288 L727 288 L850 612 L852 612 L852 288 L936 288 L936 700 L812 700 L700 408 L587 700 L587 700 Z " />
<glyph glyph-name="Omega" unicode="&#x2126;" horiz-adv-x="714" d="M189 77 L45 77 L45 0 L293 0 L293 57 C222 101 154 215 154 362 C154 513 234 630 359 630 C490 630 559 494 559 366 C559 206 490 103 419 57 L419 0 L668 0 L668 77 L522 77 L522 80 C588 137 654 245 654 385 C654 548 544 709 360 709 C186 709 58 568 58 379 C58 244 121 141 189 80 L189 77 Z " />
<glyph glyph-name="estimated" unicode="&#x212e;" horiz-adv-x="873" d="M838 340 L838 349 C838 550 658 712 435 712 C214 712 34 550 34 349 C34 150 214 -11 435 -11 C565 -11 682 44 753 129 L696 129 C632 56 540 9 436 9 C340 9 253 51 190 116 C185 122 182 130 182 139 L182 336 C182 339 184 340 187 340 L838 340 Z M690 366 C690 363 689 359 686 359 L187 359 C184 359 182 363 182 366 L182 559 C182 569 185 578 191 584 C254 648 341 690 436 690 C532 690 617 649 681 587 C687 581 690 572 690 564 L690 366 Z " />
<glyph glyph-name="partialdiff" unicode="&#x2202;" horiz-adv-x="556" d="M102 659 C129 681 173 707 234 707 C336 707 414 590 414 433 C414 422 414 403 413 393 L412 393 C397 421 342 483 254 483 C140 483 41 383 41 225 C41 114 104 -8 238 -8 C412 -8 506 167 506 406 C506 661 381 785 245 785 C159 785 105 753 73 728 L102 659 Z M247 71 C178 71 134 136 134 224 C134 323 194 407 271 407 C343 407 390 346 403 307 C391 188 335 71 248 71 L247 71 Z " />
<glyph glyph-name="Delta" unicode="&#x2206;" horiz-adv-x="650" d="M29 0 L620 0 L620 61 L382 715 L272 715 L29 60 L29 0 Z M125 76 L264 441 C281 496 312 573 321 609 L325 609 C337 564 371 479 387 426 L519 76 L125 76 Z " />
<glyph glyph-name="product" unicode="&#x220f;" horiz-adv-x="706" d="M680 612 L680 697 L25 697 L25 612 L132 612 L132 -96 L224 -96 L224 612 L481 612 L481 -96 L573 -96 L573 612 L680 612 Z " />
<glyph glyph-name="summation" unicode="&#x2211;" horiz-adv-x="554" d="M533 -96 L533 -8 L141 -8 L141 -5 L388 314 L161 614 L161 617 L517 617 L517 697 L34 697 L34 632 L281 300 L23 -35 L23 -96 L533 -96 Z " />
<glyph glyph-name="minus" unicode="&#x2212;" horiz-adv-x="600" d="M540 201 L540 279 L60 279 L60 201 L540 201 L540 201 Z " />
<glyph glyph-name="uni2215" unicode="&#x2215;" horiz-adv-x="167" d="M-98 -12 L334 712 L265 712 L-167 -12 L-98 -12 L-98 -12 Z " />
<glyph glyph-name="uni2219" unicode="&#x2219;" horiz-adv-x="278" d="M80 240 C80 207 107 181 139 181 C171 181 198 207 198 240 C198 273 171 299 139 299 C107 299 80 273 80 240 L80 240 Z " />
<glyph glyph-name="radical" unicode="&#x221a;" horiz-adv-x="578" d="M581 832 L514 832 L334 43 C328 14 323 -17 320 -37 L319 -36 C314 -15 307 14 300 41 L182 393 L33 334 L50 279 L124 308 L280 -146 L359 -146 L581 832 Z " />
<glyph glyph-name="infinity" unicode="&#x221e;" horiz-adv-x="775" d="M726 290 C726 383 664 447 577 447 C491 448 440 385 392 331 C340 395 284 447 209 447 C118 447 49 379 49 285 C49 192 120 125 202 125 C283 125 337 180 389 241 C458 159 509 125 570 125 C650 125 726 187 726 289 L726 290 Z M209 180 C149 180 107 226 107 283 C107 344 143 394 204 394 C273 394 315 337 358 282 C318 238 271 180 210 180 L209 180 Z M571 394 C628 394 668 351 668 285 C668 235 634 180 574 180 C521 180 485 214 421 288 C455 324 505 394 570 394 L571 394 Z " />
<glyph glyph-name="integral" unicode="&#x222b;" horiz-adv-x="371" d="M352 843 C341 849 318 856 295 856 C258 856 219 843 193 815 C153 772 137 710 137 598 C137 435 151 266 151 95 C151 -2 139 -46 120 -71 C109 -86 91 -93 74 -93 C55 -93 39 -85 30 -81 L16 -149 C29 -156 57 -165 85 -165 C128 -165 171 -147 195 -106 C218 -69 235 -7 235 95 C235 264 222 430 222 589 C222 680 229 735 253 763 C266 781 286 788 303 788 C317 788 331 783 339 778 L352 843 Z " />
<glyph glyph-name="approxequal" unicode="&#x2248;" horiz-adv-x="558" d="M477 438 C450 391 424 364 384 364 C350 364 328 380 292 400 C266 414 231 439 183 439 C124 439 72 400 43 341 L79 310 C104 347 131 383 176 383 C209 383 237 367 267 349 C314 322 341 308 382 308 C442 308 484 350 513 406 L477 438 Z M477 262 C449 215 424 189 384 189 C349 189 325 206 292 224 C265 239 232 263 183 263 C124 263 72 224 43 165 L79 133 C104 171 130 207 177 207 C209 207 236 192 267 173 C313 147 341 132 382 132 C442 132 485 175 513 229 L477 262 Z " />
<glyph glyph-name="notequal" unicode="&#x2260;" horiz-adv-x="558" d="M401 507 L355 526 L303 412 L50 412 L50 354 L281 354 L217 212 L50 212 L50 155 L194 155 L150 58 L196 39 L248 155 L507 155 L507 212 L271 212 L335 354 L507 354 L507 412 L358 412 L401 507 Z " />
<glyph glyph-name="lessequal" unicode="&#x2264;" horiz-adv-x="558" d="M504 97 L504 165 L115 352 L115 354 L504 539 L504 607 L55 383 L55 321 L504 97 Z M507 -1 L507 58 L50 58 L50 -1 L507 -1 Z " />
<glyph glyph-name="greaterequal" unicode="&#x2265;" horiz-adv-x="558" d="M56 607 L56 539 L445 353 L445 351 L57 165 L57 97 L505 321 L505 382 L56 607 Z M506 -1 L506 58 L51 58 L51 -1 L506 -1 Z " />
<glyph glyph-name="lozenge" unicode="&#x25ca;" horiz-adv-x="578" d="M525 348 L328 744 L253 744 L53 348 L249 -47 L325 -47 L525 348 Z M441 346 L308 82 C303 70 294 43 291 30 L287 30 C284 42 278 63 270 83 L137 350 L268 611 C277 630 283 649 288 666 L290 666 C294 651 302 628 309 611 L441 346 Z " />
<glyph glyph-name="fi" unicode="&#xfb01;" horiz-adv-x="500" d="M140 0 L140 396 L284 396 L284 480 L140 480 L140 527 C140 588 176 616 234 616 L296 616 L296 700 L222 700 C123 700 52 634 52 525 L52 0 L140 0 L140 0 Z M438 0 L438 480 L350 480 L350 0 L438 0 L438 0 Z M341 587 C341 560 360 534 394 534 C428 534 447 560 447 587 C447 614 428 640 394 640 C360 640 341 614 341 587 L341 587 Z " />
<glyph glyph-name="fl" unicode="&#xfb02;" horiz-adv-x="500" d="M140 0 L140 396 L284 396 L284 480 L140 480 L140 527 C140 588 176 616 234 616 L296 616 L296 700 L222 700 C123 700 52 634 52 525 L52 0 L140 0 L140 0 Z M438 0 L438 700 L350 700 L350 0 L438 0 L438 0 Z " />
</font>
</svg>
